Ссылка на приватное зеркало всего за 1$. Внимание количество ограничено!!!

OK

1+1

iTunes

мы

OK

1

WEB-DLRip

Джокер

Пифагор

Ведьмак / The Witcher сериал

iTunes

ПШазам

ОК

Оно 2

iTunes

30
pack

Вам бонус

ВАЖНО

!!Акция!!

Alien_RageХит недели

RePack

Resident Evil 21

ИГРА 18+

pack

RePack

jed

RePack

fifa19

RePack

Assassins Creed: Odyssey

RePack

NEED FOR SPEED™ PAYBACK

4 сезон

9 сезон

Бесстыжие 9 сезон

Все сериалы

все сериалы на PB.wtf

RePack

FAR CRY 5
  

Предатель / Betrayed (Харли Уоллен) [2018 г., Боевик, триллер, криминал, WEB-DL 720p, Любительский (многоголосый)(Синема УС)] pb.wtf

Предатель через торрент pb.wtf

Размер: 3.63 GB | Добавлен: 1 год 3 мес. назад | Торрент скачан:100 раз
Скачать  

07-10-2018 02:27 Предатель Скачать торрент  

Предатель / Betrayed
Год выпуска: 2018
Страна: США
Жанр: Боевик, триллер, криминал
Продолжительность: 01:37:31
Перевод: Любительский многоголосый (Синема УС)
Субтитры: Отсутствуют

Режиссер: Харли Уоллен

rating

В ролях: Джон Сэвэдж, Ричард Тайсон, Билли Уэрт, Т.Дж. Сторм, Бланка Бланко, Харли Уоллен, Кайти Валлен, Майкл Барби, Ян Бирч, Джимми Чиапепелли

Описание: Стремясь контролировать город, мэр открывает двери для русской мафии. Однако вскоре он понимает, что мафия следует только своим правилам. Мэр решает предать русских и связывается с Картелем. Когда русские об этом узнают, они похищают дочь мэра, и это приводит к опасным последствиям.

Доп. информация: Присутствуют вставки текстовой рекламы

Качество: WEB-DL 720p
Формат: MKV
Видео кодек: H.264
Аудио кодек: AC3
Видео: AVC/H.264, 1280x480, ~4836 Kbps
Аудио#1: AC-3, 2 ch, 384 Kbps
скриншот   скриншот   скриншот   скриншот  

Общее
Полное имя : E:\NNM\Предатель\Betrayed 2018 WEB-DLRip 720p-LQ.mkv
Формат : Matroska
Версия формата : Version 2
Размер файла : 3,63 Гбайт
Продолжительность : 1 ч. 37 м.
Режим общего битрейта : Переменный
Общий поток : 5326 Кбит/сек
Программа кодирования : libmatroska 1.4.1

Видео
Идентификатор : 1
Формат : AVC
Формат/Информация : Advanced Video Codec
Профиль формата : High@L4.1
Настройки формата : CABAC / 4 Ref Frames
Параметр CABAC формата : Да
Параметр RefFrames формата : 4 кадра
Идентификатор кодека : V_MPEG4/ISO/AVC
Продолжительность : 1 ч. 37 м.
Вид битрейта : Переменный
Битрейт : 4836 Кбит/сек
Максимальный битрейт : 5500 Кбит/сек
Ширина : 1280 пикселей
Высота : 480 пикселей
Соотношение сторон : 2,667
Режим частоты кадров : Постоянный
Частота кадров : 23,976 (24000/1001) кадра/сек
Стандарт вещания : Component
Цветовое пространство : YUV
Субдискретизация насыщенности : 4:2:0
Битовая глубина : 8 бит
Тип развёртки : Прогрессивная
Бит/(Пиксели*Кадры) : 0.328
Размер потока : 3,29 Гбайт (91%)
Default : Нет
Forced : Нет
Цветовой диапазон : Limited
Основные цвета : BT.709
Характеристики трансфера : BT.709
Коэффициенты матрицы : BT.709

Аудио
Идентификатор : 2
Формат : AC-3
Формат/Информация : Audio Coding 3
Идентификатор кодека : A_AC3
Продолжительность : 1 ч. 37 м.
Вид битрейта : Постоянный
Битрейт : 384 Кбит/сек
Каналы : 2 канала
Расположение каналов : Front: L R
Частота : 48,0 КГц
Частота кадров : 31,250 кадров/сек (1536 SPF)
Битовая глубина : 16 бит
Метод сжатия : С потерями
Размер потока : 268 Мбайт (7%)
ServiceKind/String : Complete Main
Default : Нет
Forced : Нет

pb.wtf



Скачать Предатель через торрент http://pic1.kartinco.top/images/11/5455o.jpg Скачать фильм Предатель через торрент бесплантно в хорошем качестве Описание: Стремясь контролировать город, мэр открывает двери для русской мафии. Однако вскоре он понимает, что мафия следует только своим ... 8.5 10 2
Торрент: Зарегистрирован [2018-10-07 02:27] · скачан: 100 раз
Статус: T временная
Размер: 3.63 GB
Как cкачать? Как скачать Предатель через торрент | qTorrent

% Раздел Тема Автор DL S | L
Зарубежные сериалы [ 1.4 GB ] Предательство / Betrayal / Сезон: 1 / Серии: 1 из 13 [2013 WEB-DL 720p] DVO + Original Messa-fan Скачать
1 | 0
Порно фильмы HD [ 6.56 GB ] Предательство / Betrayal [2011 FeaturePrebooks Affairs & Love Triangles Couples. BDRip 1080p Оригинал] sheker187 Скачать
1 | 0
Комиксы [ 83 MB ] TRON: Betrayal / ТРОН: Предательство IceDevil71 Скачать
1 | 0
BBC [ 569 MB ] BBC: Сталин и предательство Ленинграда / BBC: Stalin and the Betrayal of Leningrad [2002 Документальный история SATRip] 220v0lt Скачать
1 | 0
Фильмы 2009 [ 701 MB ] Предательство Формозы / Formosa Betrayed [2009 DVDRip] Lil Badun Скачать
1 | 0

28-11-2019 20:33  

Отключить всю рекламу на сайте

07-10-2018 06:29 Предатель Скачать торрент  

ох уж эта русская мафия, прям никуда без нее в этом миреpb.wtf



    Дорогой пользователь! Огромная просьба, поблагодарите релизера, оцените раздачу и оставьте свои комментарий, если Вы скачали Предатель через торрент бесплатно! Внесите свою лепту в развитие PiratBit!
    Комментировать посты могут только пользователи прошедшие не сложную регистрацию
    Показать сообщения:    

    Предатель через торрент
    Скачать бесплатно Предатель
    Предатель скачать торрент
    Предатель смотреть онлайн
    Cкачать фильм Предатель бесплатно
    Предатель скачать торрент в хорошем качестве
    Предатель смотреть онлайн бесплатно в хорошем качестве


    Вы не можете начинать темы
    Вы не можете отвечать на сообщения
    Вы не можете редактировать свои сообщения
    Вы не можете удалять свои сообщения
    Вы не можете голосовать в опросах
    Вы не можете прикреплять файлы к сообщениям
    Вы можете скачивать файлы