Ссылка на приватное зеркало всего за 1$. Внимание количество ограничено!!!

OK

1+1

iTunes

мы

OK

1

WEB-DLRip

Джокер

Пифагор

Ведьмак / The Witcher сериал

iTunes

ПШазам

ОК

Оно 2

iTunes

30
pack

Вам бонус

ВАЖНО

!!Акция!!

Alien_RageХит недели

RePack

Resident Evil 21

ИГРА 18+

pack

RePack

jed

RePack

fifa19

RePack

Assassins Creed: Odyssey

RePack

NEED FOR SPEED™ PAYBACK

4 сезон

9 сезон

Бесстыжие 9 сезон

Все сериалы

все сериалы на PB.wtf

RePack

FAR CRY 5
  

Ужаслэнд 2 / Terrortory 2 (Кевин Кангас) [2018 г., Ужасы, WEB-DL 720p, Любительский (многоголосый)(Синема УС)] pb.wtf

Ужаслэнд 2 через торрент pb.wtf

Размер: 3.72 GB | Добавлен: 1 год 3 мес. назад | Торрент скачан:93 раза
Скачать  

07-10-2018 02:36 Ужаслэнд 2 Скачать торрент  

Ужаслэнд 2 / Terrortory 2
Год выпуска: 2018
Страна: США / Kangas Kahn Films
Жанр: Ужасы
Продолжительность: 01:40:27
Перевод: Любительский (многоголосый)(Синема УС)
Субтитры: Отсутствуют

Режиссер: Кевин Кангас

rating

В ролях: Сторми Майа, Джордж Стоувер, Ричард Каттинг, Али Луковски, Уилл Стекман, Джеффри Боггс, Брэндон Хендриксон, Джош Дэвидсон, Крис О'Броки, Фредерик Кови

Описание: Четыре леденящие душу истории, рассказанные мужчиной, путешествующим через страшные земли, известные как Ужаслэнд. На пути вам встретятся самые жуткие создания: Улыбающийся Джек, Полуночный Клоун и многие другие...

Доп. информация: Присутствуют вставки текстовой рекламы

Качество: WEB-DL 720p
Формат: MKV
Видео кодек: H.264
Аудио кодек: AC3
Видео: AVC/H.264, 1280x720, ~4811 Kbps
Аудио#1: AC-3, 2 ch, 384 Kbps
скриншот   скриншот   скриншот   скриншот  

Общее
Полное имя : E:\NNM\Ужаслэнд\Terrortory 2 2018 WEB-DLRip.mkv
Формат : Matroska
Версия формата : Version 2
Размер файла : 3,72 Гбайт
Продолжительность : 1 ч. 40 м.
Режим общего битрейта : Переменный
Общий поток : 5301 Кбит/сек
Программа кодирования : libmatroska 1.4.1

Видео
Идентификатор : 1
Формат : AVC
Формат/Информация : Advanced Video Codec
Профиль формата : High@L4.1
Настройки формата : CABAC / 4 Ref Frames
Параметр CABAC формата : Да
Параметр RefFrames формата : 4 кадра
Идентификатор кодека : V_MPEG4/ISO/AVC
Продолжительность : 1 ч. 40 м.
Вид битрейта : Переменный
Битрейт : 4811 Кбит/сек
Максимальный битрейт : 5500 Кбит/сек
Ширина : 1280 пикселей
Высота : 720 пикселей
Соотношение сторон : 16:9
Режим частоты кадров : Постоянный
Частота кадров : 23,976 (24000/1001) кадра/сек
Стандарт вещания : Component
Цветовое пространство : YUV
Субдискретизация насыщенности : 4:2:0
Битовая глубина : 8 бит
Тип развёртки : Прогрессивная
Бит/(Пиксели*Кадры) : 0.218
Размер потока : 3,38 Гбайт (91%)
Default : Нет
Forced : Нет
Цветовой диапазон : Limited
Основные цвета : BT.709
Характеристики трансфера : BT.709
Коэффициенты матрицы : BT.709

Аудио
Идентификатор : 2
Формат : AC-3
Формат/Информация : Audio Coding 3
Идентификатор кодека : A_AC3
Продолжительность : 1 ч. 40 м.
Вид битрейта : Постоянный
Битрейт : 384 Кбит/сек
Каналы : 2 канала
Расположение каналов : Front: L R
Частота : 48,0 КГц
Частота кадров : 31,250 кадров/сек (1536 SPF)
Битовая глубина : 16 бит
Метод сжатия : С потерями
Размер потока : 276 Мбайт (7%)
ServiceKind/String : Complete Main
Default : Нет
Forced : Нет

pb.wtf



Скачать Ужаслэнд 2 через торрент http://pic1.kartinco.top/images/11/f29oh.jpg Скачать фильм Ужаслэнд 2 через торрент бесплантно в хорошем качестве Описание: Четыре леденящие душу истории, рассказанные мужчиной, путешествующим через страшные земли, известные как Ужаслэнд. На пути вам ... 10 10 3
Торрент: Зарегистрирован [2018-10-07 02:36] · скачан: 93 раз
Статус: T временная
Размер: 3.72 GB
Как cкачать? Как скачать Ужаслэнд 2 через торрент | qTorrent

28-11-2019 20:33  

Отключить всю рекламу на сайте

22-10-2018 17:30 Ужаслэнд 2 Скачать торрент  

Отстойный отстой! Вероятно фильм снят по заказу канала ТВ-3pb.wtf



    Дорогой пользователь! Огромная просьба, поблагодарите релизера, оцените раздачу и оставьте свои комментарий, если Вы скачали Ужаслэнд 2 через торрент бесплатно! Внесите свою лепту в развитие PiratBit!
    Комментировать посты могут только пользователи прошедшие не сложную регистрацию
    Показать сообщения:    

    Ужаслэнд 2 через торрент
    Скачать бесплатно Ужаслэнд 2
    Ужаслэнд 2 скачать торрент
    Ужаслэнд 2 смотреть онлайн
    Cкачать фильм Ужаслэнд 2 бесплатно
    Ужаслэнд 2 скачать торрент в хорошем качестве
    Ужаслэнд 2 смотреть онлайн бесплатно в хорошем качестве


    Вы не можете начинать темы
    Вы не можете отвечать на сообщения
    Вы не можете редактировать свои сообщения
    Вы не можете удалять свои сообщения
    Вы не можете голосовать в опросах
    Вы не можете прикреплять файлы к сообщениям
    Вы можете скачивать файлы