Ссылка на приватное зеркало нашего сайта всего за 1$. Внимание количество ограничено!!!

2 сезон

iTunes

iTunes

1

iTunes

iTunes

iTunes

WEBRip

iTunes

30
pack

Новость дня

ВАЖНО

!!Акция!!

Alien_RageХит недели

RePack

Horizon Zero Dawn

ИГРА 18+

pack

RePack

jed

!!Акция!!

Alien_Rage

RePack

fifa19

RePack

Assassins Creed: Odyssey

RePack

NEED FOR SPEED™ PAYBACK

4 сезон

9 сезон

Бесстыжие 9 сезон

Все сериалы

все сериалы на PB.wtf

RePack

FAR CRY 5
  

Шангри-Ла: На грани вымирания / Shangri-La: Near Extinction (Ник Уотерс) [2018 г., Фантастика, WEB-DLRip, Любительский (многоголосый) (Синема УС)] pb.wtf

Шангри-Ла: На грани вымирания через торрент pb.wtf

Размер: 1.31 GB | Добавлен: 1 год 11 мес. назад | Торрент скачан:228 раз
Скачать  

07-10-2018 02:46 Шангри-Ла: На грани вымирания Скачать торрент  

Шангри-Ла: На грани вымирания / Shangri-La: Near Extinction
Год выпуска: 2018
Страна: США
Жанр: Фантастика
Продолжительность: 01:23:53
Перевод: Любительский (многоголосый)(Синема УС)
Субтитры: Отсутствуют

Режиссер: Ник Уотерс

rating

В ролях: Мерси Мэлик, Эрик Шманда, Аарон Гробен, Микайла Сон, Джо Соуза, Асван Харрис, Роксанна ’Рокки’ Мейерс, Энджел Гарет, Дайан Дин, Сэм Марра

Описание: Человечество практически вымерло - большинсво людей погибло от смертельной инфекции и ледникового периода, созданного ими самими для ее уничтожения. Человек по имени Варгас ведет группу выживших в Шангри-Ла, последнее прекрасное место на Земле. По пути им приходится бороться с холодом, культом мутантов и опасными существами.

Доп. информация: Присутствуют вставки голосовой и текстовой рекламы

Качество: WEB-DLRip
Формат: AVI
Видео кодек: XviD
Аудио кодек: AC3
Видео: Xvid, 720x400, ~1844 Kbps
Аудио#1: AC-3, 2 ch, 384 Kbps
скриншот   скриншот   скриншот   скриншот  

Полное имя : C:\CD\Шангри-Ла - На грани вымирания (Фантастика) (2018) WEB-DLRip\Шангри-Ла - На грани вымирания (Фантастика) (2018) WEB-DLRip.avi
Формат : AVI
Формат/Информация : Audio Video Interleave
Размер файла : 1,31 Гбайт
Продолжительность : 1 ч. 23 м.
Общий поток : 2237 Кбит/сек
Программа кодирования : VirtualDubMod 1.5.10.2 (build 2540/release)
Библиотека кодирования : VirtualDub build 35576/release

Видео
Идентификатор : 0
Формат : MPEG-4 Visual
Профиль формата : Advanced Simple@L5
Настройки формата : BVOP2 / Custom Matrix
Параметр BVOP формата : 2
Параметр QPel формата : Нет
Параметр GMC формата : Без точки перехода
Параметр матрицы формата : Выборочная
Идентификатор кодека : XVID
Идентификатор кодека/Подсказка : XviD
Продолжительность : 1 ч. 23 м.
Битрейт : 1844 Кбит/сек
Ширина : 720 пикселей
Высота : 400 пикселей
Соотношение сторон : 16:9
Частота кадров : 23,976 (24000/1001) кадра/сек
Цветовое пространство : YUV
Субдискретизация насыщенности : 4:2:0
Битовая глубина : 8 бит
Тип развёртки : Прогрессивная
Метод сжатия : С потерями
Бит/(Пиксели*Кадры) : 0.267
Размер потока : 1,08 Гбайт (82%)
Библиотека кодирования : XviD 1.2.1 (UTC 2008-12-04)

Аудио
Идентификатор : 1
Формат : AC-3
Формат/Информация : Audio Coding 3
Коммерческое название : Dolby Digital
Идентификатор кодека : 2000
Продолжительность : 1 ч. 23 м.
Вид битрейта : Постоянный
Битрейт : 384 Кбит/сек
Каналы : 2 канала
Channel layout : L R
Частота : 48,0 КГц
Частота кадров : 31,250 кадров/сек (1536 SPF)
Битовая глубина : 16 бит
Метод сжатия : С потерями
Размер потока : 230 Мбайт (17%)
Выравнивание : Разделение по промежуткам
Продолжительность промежутка : 42 мс. (1,00 видеокадр)
Время предзагрузки промежутка : 500 мс.
ServiceKind/String : Complete Main

pb.wtf



Скачать Шангри-Ла: На грани вымирания через торрент http://pic1.kartinco.top/images/11/33t18.jpg Скачать фильм Шангри-Ла: На грани вымирания через торрент бесплантно в хорошем качестве Описание: Человечество практически вымерло - большинсво людей погибло от смертельной инфекции и ледникового периода, созданного ими самими ... 7.8 10 4
Торрент: Зарегистрирован [2018-10-07 02:46] · скачан: 228 раз
Статус: T временная
Размер: 1.31 GB
Как cкачать? Как скачать Шангри-Ла: На грани вымирания через торрент | qTorrent

28-11-2019 20:33  

Отключить всю рекламу на сайте

08-10-2018 14:23 Шангри-Ла: На грани вымирания Скачать торрент  

НУ и муть жесть. автору спсpb.wtf



    Дорогой пользователь! Огромная просьба, поблагодарите релизера, оцените раздачу и оставьте свои комментарий, если Вы скачали Шангри-Ла: На грани вымирания через торрент бесплатно! Внесите свою лепту в развитие PiratBit!
    Комментировать посты могут только пользователи прошедшие не сложную регистрацию
    Показать сообщения:    

    Шангри-Ла: На грани вымирания через торрент
    Скачать бесплатно Шангри-Ла: На грани вымирания
    Шангри-Ла: На грани вымирания скачать торрент
    Шангри-Ла: На грани вымирания смотреть онлайн
    Cкачать фильм Шангри-Ла: На грани вымирания бесплатно
    Шангри-Ла: На грани вымирания скачать торрент в хорошем качестве
    Шангри-Ла: На грани вымирания смотреть онлайн бесплатно в хорошем качестве


    Вы не можете начинать темы
    Вы не можете отвечать на сообщения
    Вы не можете редактировать свои сообщения
    Вы не можете удалять свои сообщения
    Вы не можете голосовать в опросах
    Вы не можете прикреплять файлы к сообщениям
    Вы можете скачивать файлы