Ссылка на приватное зеркало всего за 1$. Внимание количество ограничено!!!

OK

1+1

iTunes

мы

OK

1

WEB-DLRip

Джокер

Пифагор

Ведьмак / The Witcher сериал

iTunes

ПШазам

ОК

Оно 2

iTunes

30
pack

Вам бонус

ВАЖНО

!!Акция!!

Alien_RageХит недели

RePack

Resident Evil 21

ИГРА 18+

pack

RePack

jed

RePack

fifa19

RePack

Assassins Creed: Odyssey

RePack

NEED FOR SPEED™ PAYBACK

4 сезон

9 сезон

Бесстыжие 9 сезон

Все сериалы

все сериалы на PB.wtf

RePack

FAR CRY 5
  

Истории из морга 2 / Tales from the Hood 2 (Расти Кандифф) [2018 г., Ужасы, комедия, DVDRip, Любительский (многоголосый) (Синема УС)] pb.wtf

Истории из морга 2 через торрент pb.wtf

Размер: 1.34 GB | Добавлен: 1 год 3 мес. назад | Торрент скачан:118 раз
Скачать  

07-10-2018 02:57 Истории из морга 2 Скачать торрент  

Истории из морга 2 / Tales from the Hood 2
Год выпуска: 2018
Страна: США / Universal 1440 Entertainment
Жанр: Ужасы, комедия
Продолжительность: 01:50:07
Перевод: Любительский (многоголосый) (Синема УС)
Субтитры: Отсутствуют

Режиссер: Расти Кандифф

rating

В ролях: Кедрик Браун, Алисия Дэвис Джонсон, Крейтон Томас, Исса Абу-Исса, Жасмин Акакпо, Гуннар Андерсон, Джон Артур, Джиллиан Басерсон, Брайан Бэтт, Алекс Биглейн

Описание: Мистер Симмс получает приглашение посетить корпорацию, работникам которой удалось создать разумного робота для патрулирования улиц и обезвреживания нарушителей закона. Задача мистера Симмса - рассказывать искусственному интеллекту истории, с помощью которых он сможет откалибровать алгоритмы идентификации преступных намерений.

Доп. информация: Присутствуют вставки текстовой рекламы

Качество: DVDRip
Формат: AVI
Видео кодек: XviD
Аудио кодек: AC3
Видео: XviD, 720x400, ~1541 Kbps
Аудио#1: AC-3, 2 ch, 192 Kbps
скриншот   скриншот   скриншот   скриншот  

Общее
Полное имя : C:\_Cinema 2\Истории из морга 2\Tales From The Hood 2 2018 DVDRip.avi
Формат : AVI
Формат/Информация : Audio Video Interleave
Профиль формата : OpenDML
Размер файла : 1,34 Гбайт
Продолжительность : 1 ч. 50 м.
Общий поток : 1746 Кбит/сек

Видео
Идентификатор : 0
Формат : MPEG-4 Visual
Профиль формата : Advanced Simple@L5
Параметр BVOP формата : 2
Параметр QPel формата : Нет
Параметр GMC формата : Без точки перехода
Параметр матрицы формата : Выборочная
Идентификатор кодека : XVID
Идентификатор кодека/Подсказка : XviD
Продолжительность : 1 ч. 50 м.
Битрейт : 1541 Кбит/сек
Ширина : 720 пикселей
Высота : 400 пикселей
Соотношение сторон : 16:9
Частота кадров : 23,976 (24000/1001) кадра/сек
Цветовое пространство : YUV
Субдискретизация насыщенности : 4:2:0
Битовая глубина : 8 бит
Тип развёртки : Прогрессивная
Метод сжатия : С потерями
Бит/(Пиксели*Кадры) : 0.223
Размер потока : 1,19 Гбайт (88%)
Библиотека кодирования : XviD 1.2.1 (UTC 2008-12-04)

Аудио
Идентификатор : 1
Формат : AC-3
Формат/Информация : Audio Coding 3
Расширение режима : CM (complete main)
Параметр Endianness формата : Big
Идентификатор кодека : 2000
Продолжительность : 1 ч. 50 м.
Вид битрейта : Постоянный
Битрейт : 192 Кбит/сек
Каналы : 2 канала
Расположение каналов : Front: L R
Частота : 48,0 КГц
Частота кадров : 31,250 кадров/сек (1536 spf)
Метод сжатия : С потерями
Размер потока : 151 Мбайт (11%)
Выравнивание : Соединение по промежуткам
Продолжительность промежутка : 32 мс. (0,77 видеокадр)

pb.wtf



Скачать Истории из морга 2 через торрент http://pic1.kartinco.top/images/11/9rw9r.jpg Скачать фильм Истории из морга 2 через торрент бесплантно в хорошем качестве Описание: Мистер Симмс получает приглашение посетить корпорацию, работникам которой удалось создать разумного робота для патрулирования ... 7 10 3
Торрент: Зарегистрирован [2018-10-07 02:57] · скачан: 118 раз
Статус: T временная
Размер: 1.34 GB
Как cкачать? Как скачать Истории из морга 2 через торрент | qTorrent

28-11-2019 20:33  

Отключить всю рекламу на сайте

    Дорогой пользователь! Огромная просьба, поблагодарите релизера, оцените раздачу и оставьте свои комментарий, если Вы скачали Истории из морга 2 через торрент бесплатно! Внесите свою лепту в развитие PiratBit!
    Комментировать посты могут только пользователи прошедшие не сложную регистрацию
    Показать сообщения:    

    Истории из морга 2 через торрент
    Скачать бесплатно Истории из морга 2
    Истории из морга 2 скачать торрент
    Истории из морга 2 смотреть онлайн
    Cкачать фильм Истории из морга 2 бесплатно
    Истории из морга 2 скачать торрент в хорошем качестве
    Истории из морга 2 смотреть онлайн бесплатно в хорошем качестве


    Вы не можете начинать темы
    Вы не можете отвечать на сообщения
    Вы не можете редактировать свои сообщения
    Вы не можете удалять свои сообщения
    Вы не можете голосовать в опросах
    Вы не можете прикреплять файлы к сообщениям
    Вы можете скачивать файлы