новый адрес пиратбит piratbit
Мега распродажа FORZA HORIZON 4 ULTIMATE+ВСЕ DLC+ОНЛАЙН всего за 499р. 349 руб. (супер цена). Внимание количество ограничено!!!

iTunes

1+1

iTunes

мы

iTunes

1

iTunes

Чернобыль

iTunes

Ральф против интернета

Лицензия

ПШазам

Лицензия

Игра престолов

Лицензия

30
pack

ВАЖНО

!!Акция!!

Alien_RageХит недели

RePack

Resident Evil 21

ИГРА 18+

pack

RePack

Metro:Exodus

!!Акция!!

Alien_Rage

RePack

fifa19

RePack

Assassins Creed: Odyssey

RePack

NEED FOR SPEED™ PAYBACK

3 сезон

9 сезон

Бесстыжие 9 сезон

Все сериалы

все сериалы на PB.wtf

RePack

FAR CRY 5
Ребята, катастрофически не хватает 1900р. для оплаты серверов за Октябрь (всвязи с блокировками трафик упал в 3 раза), 1-2р., выручайте.
  

Призраки прошлого (Екатерина Двигубская) [2018 г., Мелодрама, HDTVRip, Не требуется Русский] pb.wtf

Призраки прошлого через торрент pb.wtf

Размер: 1.37 GB | Добавлен: 1 год 1 мес. назад | Торрент скачан:172 раза
Скачать  

07-10-2018 03:06 Призраки прошлого Скачать торрент  

Призраки прошлого
Год выпуска: 2018
Страна: Россия
Жанр: Мелодрама
Продолжительность: 01:29:08
Перевод: Не требуется Русский
Субтитры: Отсутствуют

Режиссер: Екатерина Двигубская



В ролях: Алла Юганова, Александр Пашков, Илья Бледный, Татьяна Храмова, Людмила Акулинина, Томас Моцкус, Вероника Волоха, Григорий Гандлевский, Светлана Корчагина, Анна Перелешина

Описание: Лена Махотина работает парикмахером и больше всего любит устраивать чужую личную жизнь. Всё меняется, когда одна из клиенток рассказывает ей о необыкновенном романе — и показывает фотографию, на которой Лена узнает собственного мужа…

Качество: HDTVRip
Формат: AVI
Видео кодек: XviD
Аудио кодек: AC3
Видео: XviD, 720x400, ~2002 Kbps
Аудио#1: AC-3, 2 ch, 192 Kbps
скриншот   скриншот   скриншот   скриншот  

Общее
Полное имя : E:\NNM\Призраки прошлого\Prizraki proshlogo 2018 HDTVRip.avi
Формат : AVI
Формат/Информация : Audio Video Interleave
Размер файла : 1,37 Гбайт
Продолжительность : 1 ч. 29 м.
Общий поток : 2204 Кбит/сек
Программа кодирования : VirtualDubMod 1.5.10.3 | www.virtualdub-fr.org || (build 2550/release)
Библиотека кодирования : VirtualDubMod build 2550/release

Видео
Идентификатор : 0
Формат : MPEG-4 Visual
Профиль формата : Advanced Simple@L5
Настройки формата : BVOP1 / Custom Matrix
Параметр BVOP формата : 1
Параметр QPel формата : Нет
Параметр GMC формата : Без точки перехода
Параметр матрицы формата : Выборочная
Идентификатор кодека : XVID
Идентификатор кодека/Подсказка : XviD
Продолжительность : 1 ч. 29 м.
Битрейт : 2002 Кбит/сек
Ширина : 720 пикселей
Высота : 400 пикселей
Соотношение сторон : 16:9
Частота кадров : 25,000 кадров/сек
Цветовое пространство : YUV
Субдискретизация насыщенности : 4:2:0
Битовая глубина : 8 бит
Тип развёртки : Прогрессивная
Метод сжатия : С потерями
Бит/(Пиксели*Кадры) : 0.278
Размер потока : 1,25 Гбайт (91%)
Библиотека кодирования : XviD 73

Аудио
Идентификатор : 1
Формат : AC-3
Формат/Информация : Audio Coding 3
Идентификатор кодека : 2000
Продолжительность : 1 ч. 29 м.
Вид битрейта : Постоянный
Битрейт : 192 Кбит/сек
Каналы : 2 канала
Расположение каналов : Front: L R
Частота : 48,0 КГц
Частота кадров : 31,250 кадров/сек (1536 SPF)
Битовая глубина : 16 бит
Метод сжатия : С потерями
Размер потока : 122 Мбайт (9%)
Выравнивание : Разделение по промежуткам
Продолжительность промежутка : 40 мс. (1,00 видеокадр)
Время предзагрузки промежутка : 500 мс.
ServiceKind/String : Complete Main

pb.wtf



Скачать Призраки прошлого через торрент http://pic1.kartinco.top/images/11/k2kd6.jpg Скачать фильм Призраки прошлого через торрент бесплантно в хорошем качестве Описание: Лена Махотина работает парикмахером и больше всего любит устраивать чужую личную жизнь. Всё меняется, когда одна из клиенток ... 8.9 10 8
Торрент: Зарегистрирован [2018-10-07 03:06] · скачан: 172 раз
Статус: √ проверено
Размер: 1.37 GB
Как cкачать? Как скачать Призраки прошлого через торрент | qTorrent

% Раздел Тема Автор DL S | L
Фантастика [ 647 MB ] Мария Стрелова - Вселенная Метро 2033. Призраки Прошлого [Сергей Ларионов 2019 128 kbps MP3] bober100 Скачать
2 | 0
Наши сериалы [ 1.19 GB ] Призраки прошлого / Серии: 1-2 из 2 [2019 WEBRip-AVC] aleksan55 Скачать
1 | 0
Наши сериалы [ 2 GB ] Призраки прошлого / Серии: 1-2 из 2 [2019 WEB-DL 720p] bober100 Скачать
2 | 0
Наши сериалы [ 1.13 GB ] Призраки прошлого / Серии: 1-2 из 2 [2019 WEBRip-AVC] bober100 Скачать
1 | 0
Наши сериалы [ 1.17 GB ] Призраки прошлого / Серии: 1-2 из 2 [2019 SATRip] bober100 Скачать
1 | 0
S.T.A.L.K.E.R. [ 2.86 GB ] S.T.A.L.K.E.R.: Call of Pripyat - Призраки прошлого [Repack RU Action /Shooter / 3D / 1st Person] by SeregA-Lus SeregA_Lus Скачать
6 | 1
S.T.A.L.K.E.R. [ 3.29 GB ] S.T.A.L.K.E.R.: Call of Pripyat - Призраки Прошлого 2 [Repack RUS] от SeregA-Lus SeregA_Lus Скачать
3 | 0


>> Регистрируемся здесь <<






Отзывы и комментарии о схеме читаем и пишем здесь: ---> Отзывы и комментарии о схеме

Новые благодарочки в телеграм довольных пользователей:
скриншот   скриншот   скриншот   скриншот   скриншот

08-10-2018 13:25 Призраки прошлого Скачать торрент  

Жене понравилось 4 из 5 автору спсpb.wtf



    Дорогой пользователь! Огромная просьба, поблагодарите релизера, оцените раздачу и оставьте свои комментарий, если Вы скачали Призраки прошлого через торрент бесплатно! Внесите свою лепту в развитие PiratBit!
    Комментировать посты могут только пользователи прошедшие не сложную регистрацию
    Показать сообщения:    

    Призраки прошлого через торрент
    Скачать бесплатно Призраки прошлого
    Призраки прошлого скачать торрент
    Призраки прошлого смотреть онлайн
    Cкачать фильм Призраки прошлого бесплатно
    Призраки прошлого скачать торрент в хорошем качестве
    Призраки прошлого смотреть онлайн бесплатно в хорошем качестве


    Вы не можете начинать темы
    Вы не можете отвечать на сообщения
    Вы не можете редактировать свои сообщения
    Вы не можете удалять свои сообщения
    Вы не можете голосовать в опросах
    Вы не можете прикреплять файлы к сообщениям
    Вы можете скачивать файлы