Ссылка на приватное зеркало всего за 1$. Внимание количество ограничено!!!

OK

1+1

iTunes

мы

OK

1

WEB-DLRip

Джокер

Пифагор

Ведьмак / The Witcher сериал

iTunes

ПШазам

ОК

Оно 2

iTunes

30
pack

Вам бонус

ВАЖНО

!!Акция!!

Alien_RageХит недели

RePack

Resident Evil 21

ИГРА 18+

pack

RePack

jed

RePack

fifa19

RePack

Assassins Creed: Odyssey

RePack

NEED FOR SPEED™ PAYBACK

4 сезон

9 сезон

Бесстыжие 9 сезон

Все сериалы

все сериалы на PB.wtf

RePack

FAR CRY 5
  

Гатао 2: Новый король / Gatao 2: The New King (Янь Цзинко) [2018 г., Драма, боевик, HDRip, Любительский (многоголосый) (Колобок)] pb.wtf

Гатао 2: Новый король через торрент pb.wtf

Раздают: 1 [ 0 KB/s ]
Размер: 1.34 GB | Добавлен: 1 год 3 мес. назад | Торрент скачан:95 раз
Скачать  

07-10-2018 03:31 Гатао 2: Новый король Скачать торрент  

Гатао 2: Новый король / Gatao 2: The New King
Год выпуска: 2018
Страна: Тайвань
Жанр: Драма, боевик
Продолжительность: 02:05:33
Перевод: Любительский (многоголосый) (Колобок)
Субтитры: Отсутствуют

Режиссер: Янь Цзинко

rating

В ролях: Джейсон Ван, Колин Чоу, Джек Као, Женг Нэн Каи, Лу Сюэфэн, Пэнг Сунь, Хсин Шао, Йинг Ди, Рексен Чэн, Шан-Хо Хуан

Описание: Жень и Цзянь с детства были как братья. Первый неплохо преуспел как бандитский босс и пользуется любовью и уважением подчиненных. А второй с бандой отморозков пытается внести разлад в установленный порядок, торговать наркотиками и подчинить себе чужие территории.

Доп. информация: Присутствуют вставки текстовой рекламы

Качество: HDRip
Формат: AVI
Видео кодек: XviD
Аудио кодек: AC3
Видео: XviD, 720x272, ~1326 Kbps
Аудио#1: AC-3, 2 ch, 192 Kbps
скриншот   скриншот   скриншот   скриншот  

Общее
Полное имя : C:\_Cinema 2\Гатао 2\Gatao 2 2018 HDRip.avi
Формат : AVI
Формат/Информация : Audio Video Interleave
Профиль формата : OpenDML
Размер файла : 1,34 Гбайт
Продолжительность : 2 ч. 5 м.
Общий поток : 1531 Кбит/сек

Видео
Идентификатор : 0
Формат : MPEG-4 Visual
Профиль формата : Advanced Simple@L5
Параметр BVOP формата : Нет
Параметр QPel формата : Нет
Параметр GMC формата : Без точки перехода
Параметр матрицы формата : Default (H.263)
Идентификатор кодека : XVID
Идентификатор кодека/Подсказка : XviD
Продолжительность : 2 ч. 5 м.
Битрейт : 1326 Кбит/сек
Ширина : 720 пикселей
Высота : 272 пикселя
Соотношение сторон : 2,647
Частота кадров : 23,976 кадра/сек
Цветовое пространство : YUV
Субдискретизация насыщенности : 4:2:0
Битовая глубина : 8 бит
Тип развёртки : Прогрессивная
Метод сжатия : С потерями
Бит/(Пиксели*Кадры) : 0.283
Размер потока : 1,16 Гбайт (87%)
Библиотека кодирования : Lavc56.60.100

Аудио
Идентификатор : 1
Формат : AC-3
Формат/Информация : Audio Coding 3
Расширение режима : CM (complete main)
Параметр Endianness формата : Big
Идентификатор кодека : 2000
Продолжительность : 2 ч. 5 м.
Вид битрейта : Постоянный
Битрейт : 192 Кбит/сек
Каналы : 2 канала
Расположение каналов : Front: L R
Частота : 48,0 КГц
Частота кадров : 31,250 кадров/сек (1536 spf)
Метод сжатия : С потерями
Размер потока : 172 Мбайт (13%)
Выравнивание : Соединение по промежуткам
Продолжительность промежутка : 32 мс. (0,77 видеокадр)

pb.wtf



Скачать Гатао 2: Новый король через торрент http://pic1.kartinco.top/images/11/smrh1.jpg Скачать фильм Гатао 2: Новый король через торрент бесплантно в хорошем качестве Описание: Жень и Цзянь с детства были как братья. Первый неплохо преуспел как бандитский босс и пользуется любовью и уважением подчиненных. ... 7.8 10 4
Торрент: Зарегистрирован [2018-10-07 03:31] · скачан: 95 раз
Статус: T временная
Размер: 1.34 GB
Как cкачать? Как скачать Гатао 2: Новый король через торрент | qTorrent

28-11-2019 20:33  

Отключить всю рекламу на сайте

    Дорогой пользователь! Огромная просьба, поблагодарите релизера, оцените раздачу и оставьте свои комментарий, если Вы скачали Гатао 2: Новый король через торрент бесплатно! Внесите свою лепту в развитие PiratBit!
    Комментировать посты могут только пользователи прошедшие не сложную регистрацию
    Показать сообщения:    

    Гатао 2: Новый король через торрент
    Скачать бесплатно Гатао 2: Новый король
    Гатао 2: Новый король скачать торрент
    Гатао 2: Новый король смотреть онлайн
    Cкачать фильм Гатао 2: Новый король бесплатно
    Гатао 2: Новый король скачать торрент в хорошем качестве
    Гатао 2: Новый король смотреть онлайн бесплатно в хорошем качестве


    Вы не можете начинать темы
    Вы не можете отвечать на сообщения
    Вы не можете редактировать свои сообщения
    Вы не можете удалять свои сообщения
    Вы не можете голосовать в опросах
    Вы не можете прикреплять файлы к сообщениям
    Вы можете скачивать файлы