Ссылка на приватное зеркало всего за 1$. Внимание количество ограничено!!!

OK

1+1

iTunes

мы

OK

1

WEB-DLRip

Джокер

Пифагор

Ведьмак / The Witcher сериал

iTunes

ПШазам

ОК

Оно 2

iTunes

30
pack

Вам бонус

ВАЖНО

!!Акция!!

Alien_RageХит недели

RePack

Resident Evil 21

ИГРА 18+

pack

RePack

jed

RePack

fifa19

RePack

Assassins Creed: Odyssey

RePack

NEED FOR SPEED™ PAYBACK

4 сезон

9 сезон

Бесстыжие 9 сезон

Все сериалы

все сериалы на PB.wtf

RePack

FAR CRY 5
  

Баньши: история ирландских призраков / Banshee Blacktop, an Irish Ghost Story (Шон Гарлэнд) [2016, ужасы, триллер, драма, криминал, детектив, WEB-DL 720p] MVO [КОЛОБОК] pb.wtf

Баньши: история ирландских призраков через торрент pb.wtf

Размер: 2.84 GB | Добавлен: 1 год 3 мес. назад | Торрент скачан:29 раз
Скачать  

07-10-2018 11:59 Баньши: история ирландских призраков Скачать торрент  

Баньши: история ирландских призраков / Banshee Blacktop, an Irish Ghost Story Год выпуска: 2016
Страна: Ирландия
Жанр: ужасы, триллер, драма, криминал, детектив
Продолжительность: 01:27:06
Перевод: Любительский (многоголосый) | КОЛОБОК
Субтитры: отсутствуют

Режиссер: Шон Гарлэнд

rating

В ролях:

Бернадетт Карлин, Кен Дойл, Лайам Халлиган, Дилан Кеннеди, Маркус Ламб, Келли Маколи, Джер О Лири, Фрэнк О Салливан

Описание:

Зловещее смертельное проклятие - Скверна - лежит на женщинах ирландского острова Инишдув. Очередная её жертва, Дирдре, вместе со своим возлюбленным, Фионном, ищут монаха Шеймуса, который обещал им спасение от Скверны...

Качество: WEB-DL 720p
Формат: MKV

Видео: 4275 kb/s, 1280x720
Аудио#1: Русский, (AC3, 2 ch, 384 Кбит/с)
скриншот  скриншот  скриншот  

Общее
Уникальный идентификатор : 177093035384102544855256681555651995019 (0x853AE0C33918F29DAE4CF6C3DA04258B)
Полное имя : D:\Banshee Blacktop - An Irish Ghost Story.2016.Pk.WEB-DL.72Op.mkv
Формат : Matroska
Версия формата : Version 2
Размер файла : 2,84 Гбайт
Продолжительность : 1 ч. 27 м.
Режим общего битрейта : Переменный
Общий поток : 4661 Кбит/сек
Дата кодирования : UTC 2018-10-07 04:19:01
Программа кодирования : mkvmerge v8.3.0 ('Over the Horizon') 64bit
Библиотека кодирования : libebml v1.3.1 + libmatroska v1.4.2

Видео
Идентификатор : 1
Формат : AVC
Формат/Информация : Advanced Video Codec
Профиль формата : High@L4.1
Параметр CABAC формата : Да
Параметр RefFrames формата : 4 кадра
Идентификатор кодека : V_MPEG4/ISO/AVC
Продолжительность : 1 ч. 27 м.
Вид битрейта : Переменный
Битрейт : 4275 Кбит/сек
Максимальный битрейт : 5000 Кбит/сек
Ширина : 1280 пикселей
Высота : 720 пикселей
Соотношение сторон : 16:9
Режим частоты кадров : Постоянный
Частота кадров : 23,976 (24000/1001) кадра/сек
Стандарт вещания : Component
Цветовое пространство : YUV
Субдискретизация насыщенности : 4:2:0
Битовая глубина : 8 бит
Тип развёртки : Прогрессивная
Бит/(Пиксели*Кадры) : 0.189
Размер потока : 2,55 Гбайт (90%)
Default : Да
Forced : Нет
Цветовой диапазон : Limited
Основные цвета : BT.709
Характеристики трансфера : BT.709
Коэффициенты матрицы : BT.709

Аудио
Идентификатор : 2
Формат : AC-3
Формат/Информация : Audio Coding 3
Расширение режима : CM (complete main)
Параметр Endianness формата : Big
Идентификатор кодека : A_AC3
Продолжительность : 1 ч. 27 м.
Вид битрейта : Постоянный
Битрейт : 384 Кбит/сек
Каналы : 2 канала
Расположение каналов : Front: L R
Частота : 48,0 КГц
Частота кадров : 31,250 кадров/сек (1536 spf)
Метод сжатия : С потерями
Размер потока : 239 Мбайт (8%)
Default : Да
Forced : Нет

pb.wtf



Скачать Баньши: история ирландских призраков через торрент http://img11.lostpic.net/2018/10/07/a01b55f4f35fd098ce0ecbbb7b30f953.jpg Скачать фильм Баньши: история ирландских призраков через торрент бесплантно в хорошем качестве Описание: Зловещее смертельное проклятие - Скверна - лежит на женщинах ирландского острова Инишдув. Очередная её жертва, Дирдре, вместе со ... 10 10 3
Торрент: Зарегистрирован [2018-10-07 11:59] · скачан: 29 раз
Статус: T временная
Размер: 2.84 GB
Как cкачать? Как скачать Баньши: история ирландских призраков через торрент | qTorrent

% Раздел Тема Автор DL S | L
T Фильмы (мультфильмы) cо спонсором показа (Новинки AVI/MKV) [ 1.36 GB ] Баньши: история ирландских призраков / Banshee Blacktop an Irish Ghost Story [2016 WEB-DLRip] MVO [КОЛОБОК] bober100 Скачать
1 | 0

28-11-2019 20:33  

Отключить всю рекламу на сайте

08-10-2018 14:22 Баньши: история ирландских призраков Скачать торрент  

Мутно. автору спсpb.wtf



    Дорогой пользователь! Огромная просьба, поблагодарите релизера, оцените раздачу и оставьте свои комментарий, если Вы скачали Баньши: история ирландских призраков через торрент бесплатно! Внесите свою лепту в развитие PiratBit!
    Комментировать посты могут только пользователи прошедшие не сложную регистрацию
    Показать сообщения:    

    Баньши: история ирландских призраков через торрент
    Скачать бесплатно Баньши: история ирландских призраков
    Баньши: история ирландских призраков скачать торрент
    Баньши: история ирландских призраков смотреть онлайн
    Cкачать фильм Баньши: история ирландских призраков бесплатно
    Баньши: история ирландских призраков скачать торрент в хорошем качестве
    Баньши: история ирландских призраков смотреть онлайн бесплатно в хорошем качестве


    Вы не можете начинать темы
    Вы не можете отвечать на сообщения
    Вы не можете редактировать свои сообщения
    Вы не можете удалять свои сообщения
    Вы не можете голосовать в опросах
    Вы не можете прикреплять файлы к сообщениям
    Вы можете скачивать файлы