Ссылка на приватное зеркало всего за 1$. Внимание количество ограничено!!!

OK

1+1

iTunes

мы

OK

1

WEB-DLRip

Джокер

Пифагор

Ведьмак / The Witcher сериал

iTunes

ПШазам

ОК

Оно 2

iTunes

30
pack

Вам бонус

ВАЖНО

!!Акция!!

Alien_RageХит недели

RePack

Resident Evil 21

ИГРА 18+

pack

RePack

jed

RePack

fifa19

RePack

Assassins Creed: Odyssey

RePack

NEED FOR SPEED™ PAYBACK

4 сезон

9 сезон

Бесстыжие 9 сезон

Все сериалы

все сериалы на PB.wtf

RePack

FAR CRY 5
  

Без сна / Sleep No More (Филлип Гузман) [2018 г., Ужасы, WEB-DL 720p, Любительский (многоголосый)(Синема УС)] pb.wtf

Без сна через торрент pb.wtf

Качают: 2 [ 0 KB/s ]
Размер: 3.05 GB | Добавлен: 1 год 3 мес. назад | Торрент скачан:172 раза
Скачать  

07-10-2018 21:57 Без сна Скачать торрент  

Без сна / Sleep No More
Год выпуска: 2018
Страна: США
Жанр: Ужасы
Продолжительность: 01:31:09
Перевод: Любительский (многоголосый)(Синема УС)
Субтитры: Отсутствуют

Режиссер: Филлип Гузман

rating

В ролях: Кели Прайс, Бриа Грант, Стивен Эллис, Кристин Двайер, Ясмин Акер, Лукас Гейдж, Джеймс Хоар, Эмили Харт, Мона Ли Фульц, Брэд Мауле

Описание: 1980-е годы. Группа студентов медицинского вуза проводит исследования влияния на организм долгого лишения сна. С объектом эксперимента что-то идет катастрофически не так, и их отдел закрывают. Но отважных исследователей темных сторон сущего это не останавливает — друзья решают ставить эксперимент над собой. Чтобы не спать 200 часов, они используют некое вещество, и вскоре обнаруживают, что к каждому из них начинает подкрадываться нечто зловещее.

Доп. информация: Присутствуют вставки текстовой рекламы

Качество: WEB-DL 720p
Формат: MKV
Видео кодек: H.264
Аудио кодек: AC3
Видео: AVC/H.264, 1280x576, ~4305 Kbps
Аудио#1: AC-3, 2 ch, 384 Kbps
скриншот   скриншот   скриншот   скриншот  

Общее
Полное имя : E:\NNM\Без сна\Sleep No More 2018 WEB-DLRip 720p-LQ.mkv
Формат : Matroska
Версия формата : Version 2
Размер файла : 3,05 Гбайт
Продолжительность : 1 ч. 31 м.
Режим общего битрейта : Постоянный
Общий поток : 4784 Кбит/сек
Программа кодирования : libmatroska 1.4.1

Видео
Идентификатор : 1
Формат : AVC
Формат/Информация : Advanced Video Codec
Профиль формата : High@L4.1
Настройки формата : CABAC / 4 Ref Frames
Параметр CABAC формата : Да
Параметр RefFrames формата : 4 кадра
Идентификатор кодека : V_MPEG4/ISO/AVC
Продолжительность : 1 ч. 31 м.
Вид битрейта : Постоянный
Битрейт : 4305 Кбит/сек
Номинальный битрейт : 5000 Кбит/сек
Ширина : 1280 пикселей
Высота : 576 пикселей
Соотношение сторон : 2,222
Режим частоты кадров : Постоянный
Частота кадров : 23,976 (24000/1001) кадра/сек
Стандарт вещания : Component
Цветовое пространство : YUV
Субдискретизация насыщенности : 4:2:0
Битовая глубина : 8 бит
Тип развёртки : Прогрессивная
Бит/(Пиксели*Кадры) : 0.244
Размер потока : 2,74 Гбайт (90%)
Default : Нет
Forced : Нет
Цветовой диапазон : Limited
Основные цвета : BT.709
Характеристики трансфера : BT.709
Коэффициенты матрицы : BT.709

Аудио
Идентификатор : 2
Формат : AC-3
Формат/Информация : Audio Coding 3
Идентификатор кодека : A_AC3
Продолжительность : 1 ч. 31 м.
Вид битрейта : Постоянный
Битрейт : 384 Кбит/сек
Каналы : 2 канала
Расположение каналов : Front: L R
Частота : 48,0 КГц
Частота кадров : 31,250 кадров/сек (1536 SPF)
Битовая глубина : 16 бит
Метод сжатия : С потерями
Размер потока : 250 Мбайт (8%)
ServiceKind/String : Complete Main
Default : Нет
Forced : Нет

pb.wtf



Скачать Без сна через торрент http://pic1.kartinco.top/images/11/jfe23.jpg Скачать фильм Без сна через торрент бесплантно в хорошем качестве Описание: 1980-е годы. Группа студентов медицинского вуза проводит исследования влияния на организм долгого лишения сна. С объектом ... 10 10 3
Торрент: Зарегистрирован [2018-10-07 21:57] · скачан: 172 раз
Статус: T временная
Размер: 3.05 GB
Как cкачать? Как скачать Без сна через торрент | qTorrent

28-11-2019 20:33  

Отключить всю рекламу на сайте

08-10-2018 14:20 Без сна Скачать торрент  

Идея интересная но смотреть мутновато. автору спс.pb.wtf



    Дорогой пользователь! Огромная просьба, поблагодарите релизера, оцените раздачу и оставьте свои комментарий, если Вы скачали Без сна через торрент бесплатно! Внесите свою лепту в развитие PiratBit!
    Комментировать посты могут только пользователи прошедшие не сложную регистрацию
    Показать сообщения:    

    Без сна через торрент
    Скачать бесплатно Без сна
    Без сна скачать торрент
    Без сна смотреть онлайн
    Cкачать фильм Без сна бесплатно
    Без сна скачать торрент в хорошем качестве
    Без сна смотреть онлайн бесплатно в хорошем качестве


    Вы не можете начинать темы
    Вы не можете отвечать на сообщения
    Вы не можете редактировать свои сообщения
    Вы не можете удалять свои сообщения
    Вы не можете голосовать в опросах
    Вы не можете прикреплять файлы к сообщениям
    Вы можете скачивать файлы