Ссылка на приватное зеркало всего за 1$. Внимание количество ограничено!!!

iTunes

iTunes

iTunes

1

iTunes

iTunes

iTunes

WEBRip

iTunes

30
pack

$ от Little Big

ВАЖНО

!!Акция!!

Alien_RageХит недели

RePack

Resident Evil 21

ИГРА 18+

pack

RePack

jed

!!Акция!!

Alien_Rage

RePack

fifa19

RePack

Assassins Creed: Odyssey

RePack

NEED FOR SPEED™ PAYBACK

4 сезон

9 сезон

Бесстыжие 9 сезон

Все сериалы

все сериалы на PB.wtf

RePack

FAR CRY 5
  

Крайность / Extremity (Энтони ДиБлази) [2018 г., Ужасы, WEB-DLRip, Любительский (многоголосый) (Синема УС)] pb.wtf

Крайность через торрент pb.wtf

Размер: 1.31 GB | Добавлен: 1 год 10 мес. назад | Торрент скачан:81 раз
Скачать  

07-10-2018 22:12 Крайность Скачать торрент  

Крайность / Extremity
Год выпуска: 2018
Страна: Канада
Жанр: Ужасы
Продолжительность: 01:38:09
Перевод: Любительский (многоголосый) (Синема УС)
Субтитры: Отсутствуют

Режиссер: Энтони ДиБлази

rating

В ролях: Чад Рук, Дэна Кристина, Дж. ЛаРоуз, Дилан Слоун, Эшли Смит, Чантал Перрон, Пол Братен, Марк Кандборг, Келси Эндрис, Кэм Ущерб

Описание: Психически неуравновешенная девушка принимает участие в экстремальной ролевой игре, чтобы справиться со своими страхами и побороть демонов прошлого, но сталкивается с демонами настоящего и оказывается втянута в круговорот лжи и преступлений.

Доп. информация: Присутствуют вставки текстовой рекламы

Качество: WEB-DLRip
Формат: AVI
Видео кодек: XviD
Аудио кодек: AC3
Видео: XviD, 720x304, ~1513 Kbps
Аудио#1: AC-3, 2 ch, 384 Kbps
скриншот   скриншот   скриншот   скриншот  

Общее
Полное имя : E:\NNM\Крайность\Extremity 2018 WEB-DLRip.avi
Формат : AVI
Формат/Информация : Audio Video Interleave
Профиль формата : OpenDML
Размер файла : 1,31 Гбайт
Продолжительность : 1 ч. 38 м.
Общий поток : 1910 Кбит/сек

Видео
Идентификатор : 0
Формат : MPEG-4 Visual
Профиль формата : Advanced Simple@L5
Настройки формата : BVOP2
Параметр BVOP формата : 2
Параметр QPel формата : Нет
Параметр GMC формата : Без точки перехода
Параметр матрицы формата : Default (H.263)
Идентификатор кодека : XVID
Идентификатор кодека/Подсказка : XviD
Продолжительность : 1 ч. 38 м.
Битрейт : 1513 Кбит/сек
Ширина : 720 пикселей
Высота : 304 пикселя
Соотношение сторон : 2,35:1
Частота кадров : 23,976 (24000/1001) кадра/сек
Цветовое пространство : YUV
Субдискретизация насыщенности : 4:2:0
Битовая глубина : 4 бит
Тип развёртки : Прогрессивная
Метод сжатия : С потерями
Бит/(Пиксели*Кадры) : 0.288
Размер потока : 1,04 Гбайт (79%)
Библиотека кодирования : XviD 1.2.1 (UTC 2008-12-04)

Аудио
Идентификатор : 1
Формат : AC-3
Формат/Информация : Audio Coding 3
Идентификатор кодека : 2000
Продолжительность : 1 ч. 38 м.
Вид битрейта : Постоянный
Битрейт : 384 Кбит/сек
Каналы : 2 канала
Расположение каналов : Front: L R
Частота : 48,0 КГц
Частота кадров : 31,250 кадров/сек (1536 SPF)
Битовая глубина : 16 бит
Метод сжатия : С потерями
Размер потока : 270 Мбайт (20%)
Выравнивание : Соединение по промежуткам
Продолжительность промежутка : 32 мс. (0,77 видеокадр)
ServiceKind/String : Complete Main

pb.wtf



Скачать Крайность через торрент http://pic1.kartinco.top/images/11/db7bv.jpg Скачать фильм Крайность через торрент бесплантно в хорошем качестве Описание: Психически неуравновешенная девушка принимает участие в экстремальной ролевой игре, чтобы справиться со своими страхами и ... 10 10 2
Торрент: Зарегистрирован [2018-10-07 22:12] · скачан: 81 раз
Статус: T временная
Размер: 1.31 GB
Как cкачать? Как скачать Крайность через торрент | qTorrent

% Раздел Тема Автор DL S | L
Фильмы [HD 720p, 1080p] (Хороший звук DUB, MVO) [ 9.74 GB ] Крайности / Extremities [1986 BDRip 1080p by msltel] DVO msltel Скачать
1 | 0
Фильмы [HD 720p, 1080p] (Хороший звук DUB, MVO) [ 3.61 GB ] Крайности / Extremities [1986 BDRip 720p by msltel] DVO msltel Скачать
1 | 0
Фильмы до 2000 г. [ 1.92 GB ] Крайности / Extremities [1986 BDRip AVC by msltel] DVO msltel Скачать
1 | 0

28-11-2019 20:33  

Отключить всю рекламу на сайте

08-10-2018 14:19 Крайность Скачать торрент  

На любителя автору спс. 1 из 5pb.wtf



    Дорогой пользователь! Огромная просьба, поблагодарите релизера, оцените раздачу и оставьте свои комментарий, если Вы скачали Крайность через торрент бесплатно! Внесите свою лепту в развитие PiratBit!
    Комментировать посты могут только пользователи прошедшие не сложную регистрацию
    Показать сообщения:    

    Крайность через торрент
    Скачать бесплатно Крайность
    Крайность скачать торрент
    Крайность смотреть онлайн
    Cкачать фильм Крайность бесплатно
    Крайность скачать торрент в хорошем качестве
    Крайность смотреть онлайн бесплатно в хорошем качестве


    Вы не можете начинать темы
    Вы не можете отвечать на сообщения
    Вы не можете редактировать свои сообщения
    Вы не можете удалять свои сообщения
    Вы не можете голосовать в опросах
    Вы не можете прикреплять файлы к сообщениям
    Вы можете скачивать файлы