Ссылка на приватное зеркало нашего сайта всего за 1$. Внимание количество ограничено!!!

2 сезон

iTunes

1 сезон

1

2 сезон

2 сезон

iTunes

1 сезон

RePack

30

Ultimate

ВАЖНО

ИГРА 18+

pack

RePack

MK11
pack

Забери бонус

RePack

jed

!!Акция!!

Alien_Rage

RePack

fifa19

RePack

Assassins Creed: Odyssey

RePack

NEED FOR SPEED™ PAYBACK

4 сезон

9 сезон

Бесстыжие 9 сезон

Все сериалы

все сериалы на PB.wtf

RePack

FAR CRY 5
  

Пожарная часть 19 / Station 19 / Сезон: 2 / Серии: 1-17 из 17 (Пэрис Барклай, Джеймс Хэнлон, Зинга Стюарт) [2018, Боевик, триллер, драма, мелодрама, WEB-DL 720p] MVO [Jaskier] pb.wtf

Пожарная часть 19 через торрент pb.wtf

Размер: 21.27 GB | Добавлен: 1 год 4 мес. назад | Торрент скачан:2 раза
Скачать  

08-10-2018 06:07 Пожарная часть 19 Скачать торрент  

Пожарная часть 19 / Station 19

Год выпуска: 2018
Страна: США
Жанр: Боевик, триллер, драма, мелодрама
Продолжительность: ~ 00:44:00
Перевод: Профессиональный (многоголосый закадровый) | Jaskier
Субтитры: отсутствуют

Режиссёр: Пэрис Барклай, Джеймс Хэнлон, Зинга Стюарт

В ролях: Джессика Ортиз, Джейсон Уинстон Джордж, Грэй Дэймон, Барретт Досс, Альберто Фрезза, Джей Хейден, Окьерете Онаодован, Даниэль Савре, Мигель Сандовал, Калеб Александр Смит, Джереми Коэнур, Эшли Фусс, Лесли Хоуп, Киана Кейн Эмма Ловен, Эллен Помпео, Шандра Уилсон

Описание: Сериал рассказывает о работниках пожарной станции номер девятнадцать, что располагается в городе Сиэтл. В центре внимания оказывается нди Эррера. Главная героиня этого сериала работает в своей профессии уже давно. К тому же она обладает некоторой властью, ведь является дочерью самого начальника станции. Характер у Энди весьма сильный: девушка знает, как держать себя в руках даже в самых сложных ситуациях. С такой боевой натурой справляются далеко не все. Новичок Бэн Уоррен многого насмотрелся в своей жизни, ведь когда-то работал анастезиологом в одной из крупнейших больниц Сиэтла. Ему приходится несладко с такой суровой коллегой. Однако рано или поздно связи между персонажами наладятся. История также захватывает рассказ о личной жизни бесстрашного лейтенанта Джека Гибсона, человека, который всю свою жизнь отдал любимому делу. Помимо привычных дел и рабочих забот главные герои задумываются о личной жизни. Энди Эррера влюблена в Райана Тэннера, человека, который служит в местной полиции. Главная героиня до сих пор скрывает свои чувства, выплескивая эмоции на работе. Ей приходится сражаться со стихией, а также быть достойным товарищем для своих коллег по работе. Удается, увы, не всегда.

rating

Качество: WEB-DL 720p
Формат: MKV

Видео: X264, ~ 3000 kbps, 1280x720 (16:9), 23.976 fps
Аудио 1: AC3, 48,0 КГц, 6 ch, 384 kbps - Rus
Аудио 2: AC3, 48,0 КГц, 6 ch, 384 kbps - Eng


Реклама: аудио, два раза в начале и в конце по 13 секунд
Общее
Уникальный идентификатор                 : 239893756197797604310663099971038666622 (0xB479DB5ABCACE6CEBCD06292C9ECDF7E)
Полное имя                               : V:ONGOING\Station.19. Сезон 2. (WEB-DL l 720p l JASKiER)\Station.19.S02E01.720p. JASKiER.mkv
Формат                                   : Matroska
Версия формата                           : Version 2
Размер файла                             : 1,10 Гбайт
Продолжительность                        : 42 м.
Общий поток                              : 3726 Кбит/сек
Дата кодирования                         : UTC 2018-10-07 17:35:10
Программа кодирования                    : mkvmerge v7.8.0 ('River Man') 32bit built on Apr  3 2015 12:11:22
Библиотека кодирования                   : libebml v1.3.1 + libmatroska v1.4.2

Видео
Идентификатор                            : 1
Формат                                   : AVC
Формат/Информация                        : Advanced Video Codec
Профиль формата                          : High@L3.1
Параметр CABAC формата                   : Да
Параметр ReFrames формата                : 5 кадров
Идентификатор кодека                     : V_MPEG4/ISO/AVC
Продолжительность                        : 42 м.
Битрейт                                  : 2884 Кбит/сек
Ширина                                   : 1280 пикселей
Высота                                   : 720 пикселей
Соотношение сторон                       : 16:9
Режим частоты кадров                     : Постоянный
Частота кадров                           : 23,976 (24000/1001) кадра/сек
Цветовое пространство                    : YUV
Субдискретизация насыщенности            : 4:2:0
Битовая глубина                          : 8 бит
Тип развёртки                            : Прогрессивная
Бит/(Пиксели*Кадры)                      : 0.131
Размер потока                            : 873 Мбайт (77%)
Default                                  : Да
Forced                                   : Нет
Цветовой диапазон                        : Limited
Основные цвета                           : BT.709
Характеристики трансфера                 : BT.709
Коэффициенты матрицы                     : BT.709

Аудио #1
Идентификатор                            : 2
Формат                                   : AC-3
Формат/Информация                        : Audio Coding 3
Расширение режима                        : CM (complete main)
Параметр Endianness формата              : Big
Идентификатор кодека                     : A_AC3
Продолжительность                        : 42 м.
Вид битрейта                             : Постоянный
Битрейт                                  : 384 Кбит/сек
Каналы                                   : 6 каналов
Расположение каналов                     : Front: L C R, Side: L R, LFE
Частота                                  : 48,0 КГц
Частота кадров                           : 31,250 кадров/сек (1536 spf)
Метод сжатия                             : С потерями
Размер потока                            : 116 Мбайт (10%)
Заголовок                                : Jaskier
Язык                                     : Russian
Default                                  : Да
Forced                                   : Нет

Аудио #2
Идентификатор                            : 3
Формат                                   : AC-3
Формат/Информация                        : Audio Coding 3
Расширение режима                        : CM (complete main)
Параметр Endianness формата              : Big
Идентификатор кодека                     : A_AC3
Продолжительность                        : 42 м.
Вид битрейта                             : Постоянный
Битрейт                                  : 384 Кбит/сек
Каналы                                   : 6 каналов
Расположение каналов                     : Front: L C R, Side: L R, LFE
Частота                                  : 48,0 КГц
Частота кадров                           : 31,250 кадров/сек (1536 spf)
Метод сжатия                             : С потерями
Размер потока                            : 116 Мбайт (10%)
Язык                                     : English
Default                                  : Нет
Forced                                   : Нет
скриншот  скриншот  скриншот  
Когда раздача ведётся путём добавления новых серий, при каждом добавлении создётся новый торрент. Чтобы начать докачку новой серии, пользователям необходимо сделать следующее:
(1) остановить скачивание,
(2) удалить старый торрент у себя из клиента (старые серии удалять не надо),
(3) скачать новый торрент и запустить его у себя в клиенте вместо старого, при этом указать клиенту путь в старую папку, куда и должно происходить скачивание новых серий.
Ваш клиент при этом должен произвести хеширование (проверку) старой папки (если не производит сам - помогите ему сделать это), и будет докачивать только те серии, которых у вас ещё нет. Старые серии при этом не удаляются, а продолжают раздаваться!
Eсли вы уже удалили старые серии, то предотвратить повторную закачку старых серий можно, отжав галочку в соответсвующих местах при запуске нового торрента. По возможности, желательно не удалять старые серии как можно дольше, чтобы релизёр не столько продолжал раздавать старые серии, а смог сконцентрироваться на новых.
pb.wtf



Скачать Пожарная часть 19 через торрент http://i91.fastpic.ru/big/2018/1007/e6/cb06ee16464a897b52b8323d08e2a1e6.png Скачать фильм Пожарная часть 19 через торрент бесплантно в хорошем качестве Описание: Сериал рассказывает о работниках пожарной станции номер девятнадцать, что располагается в городе Сиэтл. В центре внимания ... 10 10 4
Торрент: Зарегистрирован [2019-07-23 20:53] · скачан: 2 раз
Статус: √ проверено
Размер: 21.27 GB
Как cкачать? Как скачать Пожарная часть 19 через торрент | qTorrent

% Раздел Тема Автор DL S | L
Зарубежные сериалы [ 47.44 GB ] Пожарная часть 19 / Station 19 / Сезон: 2 / Серии: 1-17 из 17 [2018 WEB-DL 1080p] DUB [Кириллица] bober100 Скачать
1 | 0
Зарубежные сериалы [ 8.58 GB ] Пожарная часть 19 / Station 19 / Сезон: 2 / Серии: 1-17 из 17 [2018 WEB-DLRip] MVO [Jaskier] bober100 Скачать
1 | 0

28-11-2019 20:33  

Отключить всю рекламу на сайте

    Дорогой пользователь! Огромная просьба, поблагодарите релизера, оцените раздачу и оставьте свои комментарий, если Вы скачали Пожарная часть 19 через торрент бесплатно! Внесите свою лепту в развитие PiratBit!
    Комментировать посты могут только пользователи прошедшие не сложную регистрацию
    Показать сообщения:    

    Пожарная часть 19 через торрент
    Скачать бесплатно Пожарная часть 19
    Пожарная часть 19 скачать торрент
    Пожарная часть 19 смотреть онлайн
    Cкачать фильм Пожарная часть 19 бесплатно
    Пожарная часть 19 скачать торрент в хорошем качестве
    Пожарная часть 19 смотреть онлайн бесплатно в хорошем качестве


    Вы не можете начинать темы
    Вы не можете отвечать на сообщения
    Вы не можете редактировать свои сообщения
    Вы не можете удалять свои сообщения
    Вы не можете голосовать в опросах
    Вы не можете прикреплять файлы к сообщениям
    Вы можете скачивать файлы