новый адрес пиратбит piratbit
Мега распродажа FORZA HORIZON 4 ULTIMATE+ВСЕ DLC+ОНЛАЙН всего за 499р. 349 руб. (супер цена). Внимание количество ограничено!!!

iTunes

1+1

iTunes

мы

iTunes

1

iTunes

Чернобыль

iTunes

Ральф против интернета

Лицензия

ПШазам

Лицензия

Игра престолов

Лицензия

30
pack

ВАЖНО

!!Акция!!

Alien_RageХит недели

RePack

Resident Evil 21

ИГРА 18+

pack

RePack

Metro:Exodus

!!Акция!!

Alien_Rage

RePack

fifa19

RePack

Assassins Creed: Odyssey

RePack

NEED FOR SPEED™ PAYBACK

3 сезон

9 сезон

Бесстыжие 9 сезон

Все сериалы

все сериалы на PB.wtf

RePack

FAR CRY 5
Ребята, катастрофически не хватает 1900р. для оплаты серверов за Октябрь (всвязи с блокировками трафик упал в 3 раза), 1-2р., выручайте.
  

Високосный год (Анатолий Эфрос) [1961, СССР, драма, DVDRip от AVP Studio] pb.wtf

Високосный год через торрент pb.wtf

Размер: 1.09 GB | Добавлен: 1 год 1 мес. назад | Торрент скачан:21 раз
Скачать  

08-10-2018 09:18 Високосный год Скачать торрент  

Високосный год
Страна: СССР
Производство: Мосфильм

Жанр: драма
Год выпуска: 1961
Продолжительность: 01:28:38

Перевод: Не требуется
Cубтитры: нет
Оригинальная аудиодорожка: русский

Режиссер: Анатолий Эфрос

В ролях:
Иннокентий Смоктуновский, Елена Фадеева, Василий Макаров, Елена Орлова, Виктория Ермольева, Михаил Логвинов, Валентин Никулин, Павел Шальнов, Евгений Агуров, Эмма Цесарская, Владимир Паперный, Марианна Вертинская, Николай Закиев, Лев Дуров, Николай Малюгин, Александра Денисова, Дмитрий Орловский, А. Белая, Алла Будницкая...
Об актёрах подробней

Описание:
По повести Веры Пановой «Времена года».
Геннадий Куприянов (Смоктуновский) работает на стройке. После постоянных ссор с женой герой уходит из дома к медсестре Зине. Ее сын Саша тоже работает на стройке. Ему не нравится Геннадий и парень не знает, как освободить мать от беспокойства и горечи, которые вошли в дом с приходом этого странного человека. Парень стал часто бывать у нового друга. Внимательные родители, умные спокойные разговоры, материальное благополучие - все здесь привлекает парня. Однако глава семьи - заведующий горторгом – давно работает на группу жуликов, орудующих в торговой сети. С ними же, незаметно для себя, оказался связанным и Геннадий Куприянов.

Источник: DVD5 R5
Качество видео: DVDRip
Формат видео: AVI

Видео: 688х512 (4:3), 25 fps, XviD ~ 1559 kbps avg, 0.177 bit/pixel
Аудио: 48 kHz, Dolby Digital AC3 2.0, 192 kbps

Раздача от:
Общее
Полное имя : Visokosnyy.god.1961.DVDRip_[New-team]_by_AVP_Studio.avi
Формат : AVI
Формат/Информация : Audio Video Interleave
Размер файла : 1,09 Гбайт
Продолжительность : 1 ч. 28 м.
Общий поток : 1761 Кбит/сек
Программа кодирования : VirtualDubMod 1.5.10.3 | www.virtualdub-fr.org || (build 2550/release)
Библиотека кодирования : VirtualDubMod build 2550/release

Видео
Идентификатор : 0
Формат : MPEG-4 Visual
Профиль формата : Advanced Simple@L5
Настройки формата : BVOP1 / Custom Matrix
Параметр BVOP формата : 1
Параметр QPel формата : Нет
Параметр GMC формата : Без точки перехода
Параметр матрицы формата : Выборочная
Идентификатор кодека : XVID
Идентификатор кодека/Подсказка : XviD
Продолжительность : 1 ч. 28 м.
Битрейт : 1559 Кбит/сек
Ширина : 688 пикселей
Высота : 512 пикселей
Соотношение сторон : 4:3
Частота кадров : 25,000 кадров/сек
Цветовое пространство : YUV
Субдискретизация насыщенности : 4:2:0
Битовая глубина : 8 бит
Тип развёртки : Прогрессивная
Метод сжатия : С потерями
Бит/(Пиксели*Кадры) : 0.177
Размер потока : 988 Мбайт (89%)
Библиотека кодирования : XviD 73

Аудио
Идентификатор : 1
Формат : AC-3
Формат/Информация : Audio Coding 3
Коммерческое название : Dolby Digital
Идентификатор кодека : 2000
Продолжительность : 1 ч. 28 м.
Вид битрейта : Постоянный
Битрейт : 192 Кбит/сек
Каналы : 2 канала
Channel layout : L R
Частота : 48,0 КГц
Частота кадров : 31,250 кадров/сек (1536 SPF)
Битовая глубина : 16 бит
Метод сжатия : С потерями
Размер потока : 122 Мбайт (11%)
Выравнивание : Разделение по промежуткам
Продолжительность промежутка : 40 мс. (1,00 видеокадр)
Время предзагрузки промежутка : 500 мс
pb.wtf



Скачать Високосный год через торрент http://picplus.ru/img/1810/07/fbc963e4.png Скачать фильм Високосный год через торрент бесплантно в хорошем качестве Описание:По повести Веры Пановой «Времена года».Геннадий Куприянов (Смоктуновский) работает на стройке. После постоянных ссор с женой герой ... 5 10 1
Торрент: Зарегистрирован [2018-10-08 09:18] · скачан: 21 раз
Статус: √ проверено
Размер: 1.09 GB
Как cкачать? Как скачать Високосный год через торрент | qTorrent

% Раздел Тема Автор DL S | L
Кино СССР [ 1.09 GB ] Високосный год [1961 СССР DVDRip-AVC от AVP Studio] AVP Studio Скачать
1 | 0
Фильмы 2010 [ 1.36 GB ] Как выйти замуж за 3 дня / Високосный год / Leap Year [2010 HDRip лицензия] SD Скачать
1 | 0
Фильмы [HD 720p, 1080p] (Хороший звук DUB, MVO) [ 5.22 GB ] Как выйти замуж за 3 дня / Високосный год / Leap Year [2010 Ирландия BDRip 720p] diletant Скачать
1 | 0
Фильмы 2010 [ 1.36 GB ] Високосный год / Leap Year [2010 DVDRip] Анютка Смирнова Скачать
1 | 0
Фильмы 2010 [ 1.32 GB ] Високосный год / Leap Year [2010 HDTV] aspace Скачать
1 | 0


>> Регистрируемся здесь <<






Отзывы и комментарии о схеме читаем и пишем здесь: ---> Отзывы и комментарии о схеме

Новые благодарочки в телеграм довольных пользователей:
скриншот   скриншот   скриншот   скриншот   скриншот
    Дорогой пользователь! Огромная просьба, поблагодарите релизера, оцените раздачу и оставьте свои комментарий, если Вы скачали Високосный год через торрент бесплатно! Внесите свою лепту в развитие PiratBit!
    Комментировать посты могут только пользователи прошедшие не сложную регистрацию
    Показать сообщения:    

    Високосный год через торрент
    Скачать бесплатно Високосный год
    Високосный год скачать торрент
    Високосный год смотреть онлайн
    Cкачать фильм Високосный год бесплатно
    Високосный год скачать торрент в хорошем качестве
    Високосный год смотреть онлайн бесплатно в хорошем качестве


    Вы не можете начинать темы
    Вы не можете отвечать на сообщения
    Вы не можете редактировать свои сообщения
    Вы не можете удалять свои сообщения
    Вы не можете голосовать в опросах
    Вы не можете прикреплять файлы к сообщениям
    Вы можете скачивать файлы