Ссылка на приватное зеркало нашего сайта всего за 1$. Внимание количество ограничено!!!

2 сезон

iTunes

1 сезон

1

2 сезон

2 сезон

iTunes

1 сезон

RePack

30

Ultimate

ВАЖНО

ИГРА 18+

pack

RePack

MK11
pack

Забери бонус

RePack

jed

!!Акция!!

Alien_Rage

RePack

fifa19

RePack

Assassins Creed: Odyssey

RePack

NEED FOR SPEED™ PAYBACK

4 сезон

9 сезон

Бесстыжие 9 сезон

Все сериалы

все сериалы на PB.wtf

RePack

FAR CRY 5
  

Человек в высоком замке / The Man in the High Castle / Сезон: 3 / Серии: 1-10 (10) (Дэниэл Персивал) [2018, фантастика, триллер, драма, WEBRip] [MVO] (AlexFilm) pb.wtf

Человек в высоком замке через торрент pb.wtf

Раздают: 1 [ 0 KB/s ]
Размер: 6.79 GB | Добавлен: 2 года назад | Торрент скачан:55 раз
Скачать  

08-10-2018 10:07 Человек в высоком замке Скачать торрент  



Человек в высоком замке / The Man in the High Castle


Год выпуска: 2018
Страна: США
Жанр: фантастика, триллер, драма
Продолжительность: 1x ~ 00:50:00
Перевод: Профессиональный (многоголосый закадровый) (AlexFilm)
Режиссёры: Дэниэл Персивал, Брэд Андерсон, Карин Кусама

В ролях: Алекса Давалос, Руперт Эванс, Люк Клеинтенк, Джоэль де ла Фуэнте, Кэри-Хироюки Тагава, Руфус Сьюэлл, Майкл Рисполи, Джеффри Блейк, Бернхард Форхер
Описание: Германия и Япония выиграли Вторую мировую. Америка разделена пополам между победителями, но, разумеется, спустя много лет после поражения (действие разворачивается в 1962-м) сознательные американцы организуют глубоко засекреченное подполье. Занимаются повстанцы в основном распространением странной кинохроники, на которой показана победа в войне союзнических войск. Именно с этими пленками в руках в нейтральную зону между двумя Америками отправляются Джо и Джулс — юноша и девушка, пробующие свои силы в борьбе с режимом.
Релиз:

Перевод: Константин Кривоногов
Монтаж и сведение звука: Михаил Шорыгин
Роли озвучивали:
    • Екатерина Муравицкая
    • Наталья Ланц
    • Петр Гланц
    • Кирилл Патрино
    • Алексей Никитин
    • Михаил Шорыгин
    • Михаил Федосеев

Сэмпл: http://sendfile.su/1446771

Качество: WEBRip
Формат: AVI
Видео кодек: XviD
Аудио кодек: MP3
Видео: 720x400, 23.976 fps, XviD ~1400 kbps avg, 0.20 bit/pixel
Аудио Rus: 48 kHz, MPEG Layer 3, 2 ch, ~128.00 kbps avg
Аудио Eng: 48 kHz, MPEG Layer 3, 2 ch, ~128.00 kbps avg
Субтитры: нет
скриншот  скриншот  скриншот  
Формат : AVI
Формат/Информация : Audio Video Interleave
Размер файла : 827 Мбайт
Продолжительность : 1 ч. 10 м.
Общий поток : 1648 Кбит/сек
Название фильма : The Man in the High Castle 3x01 @ AlexFilm
Программа кодирования : VirtualDubMod 1.5.10.2 (build 2540/release)
Библиотека кодирования : VirtualDubMod build 2540/release

Видео
Идентификатор : 0
Формат : MPEG-4 Visual
Профиль формата : Advanced Simple@L5
Параметр BVOP формата : Нет
Параметр QPel формата : Нет
Параметр GMC формата : Без точки перехода
Параметр матрицы формата : Default (MPEG)
Идентификатор кодека : XVID
Идентификатор кодека/Подсказка : XviD
Продолжительность : 1 ч. 10 м.
Битрейт : 1378 Кбит/сек
Ширина : 720 пикселей
Высота : 400 пикселей
Соотношение сторон : 16:9
Частота кадров : 23,976 (23976/1000) кадра/сек
Цветовое пространство : YUV
Субдискретизация насыщенности : 4:2:0
Битовая глубина : 8 бит
Тип развёртки : Прогрессивная
Метод сжатия : С потерями
Бит/(Пиксели*Кадры) : 0.200
Размер потока : 691 Мбайт (84%)
Библиотека кодирования : XviD 67

Аудио #1
Идентификатор : 1
Формат : MPEG Audio
Версия формата : Version 1
Профиль формата : Layer 3
Режим : Joint stereo
Расширение режима : MS Stereo
Идентификатор кодека : 55
Идентификатор кодека/Подсказка : MP3
Продолжительность : 1 ч. 10 м.
Вид битрейта : Постоянный
Битрейт : 128 Кбит/сек
Каналы : 2 канала
Частота : 48,0 КГц
Метод сжатия : С потерями
Размер потока : 64,2 Мбайт (8%)
Выравнивание : Соединение по промежуткам
Продолжительность промежутка : 42 мс. (1,00 видеокадр)
Время предзагрузки промежутка : 504 мс.
Заголовок : Russian (AlexFilm)

Аудио #2
Идентификатор : 2
Формат : MPEG Audio
Версия формата : Version 1
Профиль формата : Layer 3
Режим : Joint stereo
Расширение режима : MS Stereo
Идентификатор кодека : 55
Идентификатор кодека/Подсказка : MP3
Продолжительность : 1 ч. 10 м.
Вид битрейта : Постоянный
Битрейт : 128 Кбит/сек
Каналы : 2 канала
Частота : 48,0 КГц
Метод сжатия : С потерями
Размер потока : 64,2 Мбайт (8%)
Выравнивание : Соединение по промежуткам
Продолжительность промежутка : 42 мс. (1,00 видеокадр)
Время предзагрузки промежутка : 504 мс.
Заголовок : English
Библиотека кодирования : LAME3.90.3
Внимание! Раздача ведётся путём добавления новых серий; при каждом добавлении создаётся новый торрент. Чтобы начать докачку новой серии, пользователям необходимо сделать следующее:
(1) остановить скачивание,
(2) удалить старый торрент у себя из клиента (старые серии удалять не надо),
(3) скачать новый торрент и запустить его у себя в клиенте вместо старого, при этом указать клиенту путь в старую папку куда и должно происходить скачивание новых серий.
Ваш клиент при этом должен произвести хеширование (проверку) старой папки (если не производит сам - помогите ему сделать это), и будет докачивать только те серии которых у вас ещё нет. Старые серии при этом не удаляются, а продолжают раздаваться!
Eсли вы уже удалили старые серии, то предотвратить повторную закачку старых серий можно, отжав галочку в соответствующих местах при запуске нового торрента. По возможности, желательно не удалять старые серии как можно дольше чтобы релизёр не столько продолжал раздавать старые серии, а смог сконцентрироваться на новых.
pb.wtf



Скачать Человек в высоком замке через торрент http://i91.fastpic.ru/big/2018/1006/de/0086ca2b0388ff49ee5d4ba36198e0de.jpg Скачать фильм Человек в высоком замке через торрент бесплантно в хорошем качестве Описание: Германия и Япония выиграли Вторую мировую. Америка разделена пополам между победителями, но, разумеется, спустя много лет после ... 9.8 10 5
Торрент: Зарегистрирован [2018-11-10 19:56] · скачан: 55 раз
Статус: √ проверено
Размер: 6.79 GB
Как cкачать? Как скачать Человек в высоком замке через торрент | qTorrent

% Раздел Тема Автор DL S | L
Фильмы с украинским озвучиванием [ 87.92 GB ] Человек в высоком замке / The Man in the High Castle / Сезон: 3 / Серии: 1-10 из 10 [2018 WEBRip 2160p] [Ukr MVO] killermax2013 Скачать
1 | 0
Зарубежные сериалы [ 25 GB ] Человек в высоком замке / The Man in the High Castle / Сезон: 3 / Серии: 1-10 из 10 [2018 WEB-DL 1080p] MVO [Lostfilm] bober100 Скачать
2 | 0
Зарубежные сериалы [ 6.21 GB ] Человек в высоком замке / The Man in the High Castle / Сезон: 3 / Серии: 1-10 из 10 [2018 WEB-DLRip] [MVO] killermax2013 Скачать
1 | 0
Зарубежные сериалы [ 22.98 GB ] Человек в высоком замке / The Man in the High Castle / Сезон: 3 / Серии: 1-10 из 10 [2018 WEB-DL 1080p] [MVO] killermax2013 Скачать
1 | 0
Зарубежные сериалы [ 87.67 GB ] Человек в высоком замке / The Man in the High Castle / Сезон: 3 / Серии: 1-10 из 10 [2018 UHD WEBRip 2160p] 2xMVO [NewStudio Baibako] bober100 Скачать
1 | 0
Зарубежные сериалы [ 6.21 GB ] Человек в высоком замке / The Man in the High Castle / Сезон: 3 / Серии: 1-10 [2018 WEBRip] [MVO] killermax2013 Скачать
1 | 0
Зарубежные сериалы [ 22.84 GB ] Человек в высоком замке / The Man in the High Castle / Сезон: 3 / Серии: 1-10 [2018 WEBRip 1080p] [MVO] killermax2013 Скачать
1 | 0


Последний раз редактировалось: killermax2013 (2018-11-10 19:56), всего редактировалось 6 раз(а)

28-11-2019 20:33  

Отключить всю рекламу на сайте

12-10-2018 17:28 Человек в высоком замке Скачать торрент  

Спасибо, скачаю и поддержу. Будет ли 1080р с этой озвучкой?pb.wtf



12-10-2018 20:29 Человек в высоком замке Скачать торрент  

Stas9355 писал(а):

Спасибо, скачаю и поддержу. Будет ли 1080р с этой озвучкой?

держите Человек в высоком замке / The Man in the High Castle / Сезон: 3 / Серии: 1-10 pb.wtf



    Дорогой пользователь! Огромная просьба, поблагодарите релизера, оцените раздачу и оставьте свои комментарий, если Вы скачали Человек в высоком замке через торрент бесплатно! Внесите свою лепту в развитие PiratBit!
    Комментировать посты могут только пользователи прошедшие не сложную регистрацию
    Показать сообщения:    

    Человек в высоком замке через торрент
    Скачать бесплатно Человек в высоком замке
    Человек в высоком замке скачать торрент
    Человек в высоком замке смотреть онлайн
    Cкачать фильм Человек в высоком замке бесплатно
    Человек в высоком замке скачать торрент в хорошем качестве
    Человек в высоком замке смотреть онлайн бесплатно в хорошем качестве


    Вы не можете начинать темы
    Вы не можете отвечать на сообщения
    Вы не можете редактировать свои сообщения
    Вы не можете удалять свои сообщения
    Вы не можете голосовать в опросах
    Вы не можете прикреплять файлы к сообщениям
    Вы можете скачивать файлы