Marvel's Avengers Deluxe Edition (супер цена) 159р. Внимание количество ограничено!!!

2 сезон

iTunes

iTunes

1

iTunes

iTunes

iTunes

WEBRip

iTunes

30
pack

Новость дня

ВАЖНО

!!Акция!!

Alien_RageХит недели

RePack

Horizon Zero Dawn

ИГРА 18+

pack

RePack

jed

!!Акция!!

Alien_Rage

RePack

fifa19

RePack

Assassins Creed: Odyssey

RePack

NEED FOR SPEED™ PAYBACK

4 сезон

9 сезон

Бесстыжие 9 сезон

Все сериалы

все сериалы на PB.wtf

RePack

FAR CRY 5
  

День Зомбанутого Валентина / Valentine DayZ (Марк Аллен Майклс) [2018 г., Ужасы, WEB-DLRip, Любительский (многоголосый)] [Синема УС] pb.wtf

День Зомбанутого Валентина через торрент pb.wtf

Размер: 1.37 GB | Добавлен: 1 год 11 мес. назад | Торрент скачан:41 раз
Скачать  

08-10-2018 14:55 День Зомбанутого Валентина Скачать торрент  

День Зомбанутого Валентина / Valentine DayZ
Год выпуска: 2018
Страна: США
Жанр: Ужасы
Продолжительность: 01:21:40
Перевод: Любительский (многоголосый) | Синема УС
Субтитры: Отсутствуют

Режиссер: Марк Аллен Майклс

rating

В ролях: Татьяна Ромао, Дайан Голднер, Кэрри Киган, Дэнни Грюнберг, Курт Ламберт, Buddy Clements, Кейт Риис Дейвис, Роберт Аллен Мюкс, Dallas Valdez, Джонни Уайт

Описание: История любви главных героев должна была закончится свадьбой в праздник всех влюбленных. Но День Святого Валентина оказался вовсе не светлым. Ведь в это время люди один за другим заражаются неизвестным вирусом, который превращает их в кровожадных зомби. Влюбленные решили повременить со свадьбой. Ведь теперь у них есть дела поважнее...

Качество: WEB-DLRip
Формат: AVI
Видео кодек: XviD
Аудио кодек: AC3
Видео: XviD, 720x304 , 23.9fps, 2003 Kbps
Аудио#1: AC3 , 2 ch , 48 kHz , 384 kbps
скриншот   скриншот   скриншот   скриншот   скриншот   скриншот   скриншот   скриншот  

Общее
Полное имя : D:Valentine.DayZ.2018.P.WEB-DLRip.14OOMB_KOSHARA.avi
Формат : AVI
Формат/Информация : Audio Video Interleave
Размер файла : 1,37 Гбайт
Продолжительность : 1 ч. 21 м.
Общий поток : 2396 Кбит/сек
Программа кодирования : VirtualDubMod 1.5.10.2 (build 2540/release)
Библиотека кодирования : VirtualDubMod build 2540/release

Видео
Идентификатор : 0
Формат : MPEG-4 Visual
Профиль формата : Advanced Simple@L5
Параметр BVOP формата : 2
Параметр QPel формата : Нет
Параметр GMC формата : Без точки перехода
Параметр матрицы формата : Выборочная
Идентификатор кодека : XVID
Идентификатор кодека/Подсказка : XviD
Продолжительность : 1 ч. 21 м.
Битрейт : 2003 Кбит/сек
Ширина : 720 пикселей
Высота : 304 пикселя
Соотношение сторон : 2,35:1
Частота кадров : 23,976 кадра/сек
Цветовое пространство : YUV
Субдискретизация насыщенности : 4:2:0
Битовая глубина : 8 бит
Тип развёртки : Прогрессивная
Метод сжатия : С потерями
Бит/(Пиксели*Кадры) : 0.382
Размер потока : 1,14 Гбайт (84%)
Библиотека кодирования : XviD 1.2.1 (UTC 2008-12-04)

Аудио
Идентификатор : 1
Формат : AC-3
Формат/Информация : Audio Coding 3
Расширение режима : CM (complete main)
Параметр Endianness формата : Big
Идентификатор кодека : 2000
Продолжительность : 1 ч. 21 м.
Вид битрейта : Постоянный
Битрейт : 384 Кбит/сек
Каналы : 2 канала
Расположение каналов : Front: L R
Частота : 48,0 КГц
Битовая глубина : 16 бит
Метод сжатия : С потерями
Размер потока : 224 Мбайт (16%)
Выравнивание : Разделение по промежуткам
Продолжительность промежутка : 42 мс. (1,00 видеокадр)
Время предзагрузки промежутка : 500 мс.

pb.wtf



Скачать День Зомбанутого Валентина через торрент http://pic1.kartinco.top/images/11/4he5z.jpg Скачать фильм День Зомбанутого Валентина через торрент бесплантно в хорошем качестве Описание: История любви главных героев должна была закончится свадьбой в праздник всех влюбленных. Но День Святого Валентина оказался вовсе ... 10 10 1
Торрент: Зарегистрирован [2018-10-08 14:55] · скачан: 41 раз
Статус: T временная
Размер: 1.37 GB
Как cкачать? Как скачать День Зомбанутого Валентина через торрент | qTorrent

% Раздел Тема Автор DL S | L
T Фильмы (мультфильмы) cо спонсором показа (Новинки AVI/MKV) [ 3.03 GB ] День Зомбанутого Валентина / Valentine DayZ [2018 WEB-DL 720p] MVO ["Синема УС"] bober100 Скачать
1 | 0

28-11-2019 20:33  

Отключить всю рекламу на сайте

08-10-2018 15:12 День Зомбанутого Валентина Скачать торрент  

рейтинг 1 и 8 десятых-это даже круче чем у наших новых горе-комедий.pb.wtf



08-10-2018 16:45 День Зомбанутого Валентина Скачать торрент  

Судя по скринам это комедия.pb.wtf



    Дорогой пользователь! Огромная просьба, поблагодарите релизера, оцените раздачу и оставьте свои комментарий, если Вы скачали День Зомбанутого Валентина через торрент бесплатно! Внесите свою лепту в развитие PiratBit!
    Комментировать посты могут только пользователи прошедшие не сложную регистрацию
    Показать сообщения:    

    День Зомбанутого Валентина через торрент
    Скачать бесплатно День Зомбанутого Валентина
    День Зомбанутого Валентина скачать торрент
    День Зомбанутого Валентина смотреть онлайн
    Cкачать фильм День Зомбанутого Валентина бесплатно
    День Зомбанутого Валентина скачать торрент в хорошем качестве
    День Зомбанутого Валентина смотреть онлайн бесплатно в хорошем качестве


    Вы не можете начинать темы
    Вы не можете отвечать на сообщения
    Вы не можете редактировать свои сообщения
    Вы не можете удалять свои сообщения
    Вы не можете голосовать в опросах
    Вы не можете прикреплять файлы к сообщениям
    Вы можете скачивать файлы