2 сезон

iTunes

MVO

1

2 сезон

iTunes

iTunes

1 сезон

RePack

30

Новинка

ВАЖНО

ИГРА 18+

pack

RePack

MK11
pack

Легкие деньги

RePack

jed

RePack

fifa19

RePack

RDR2

RePack

NEED FOR SPEED™ PAYBACK

4 сезон

9 сезон

Бесстыжие 9 сезон

Все сериалы

все сериалы на PB.wtf

RePack

FAR CRY 5

Anonymous, добрый день, мы не успеваем собрать деньги на оплату серверов за декабрь и январь, помогите нам пожалуйста в это трудное время. В качестве благодарности мы отключим Вам всю рекламу на сайте (укажите свой ник в строку Ваше имя)!

×
  
Magnet ссылка

Korn - Another Brick In The Wall [2018 г., Alternative Metal, WEB-DL 720p] pb.wtf

Korn - Another Brick In The Wall через торрент pb.wtf

Размер: 742 MB | Добавлен: 2 года 3 мес. назад | Торрент скачан:39 раз
Скачать  

08-10-2018 17:25 Korn - Another Brick In The Wall Скачать торрент  

Korn - Another Brick In The Wall
Год выпуска: 2018
Жанр: Alternative Metal
Продолжительность: 00:13:25

В ролях: Korn

Описание: Выступление американской группы Korn

Качество: WEB-DL 720p
Формат: MKV
Видео кодек: H.264
Аудио кодек: AC3
Видео: H.264, 1280x720 , 25.0fps, 7500 Kbps
Аудио#1: AC3 , 2 ch , 48 kHz , 256 kbps
скриншот   скриншот   скриншот   скриншот  

Общее
Уникальный идентификатор : 248911949432722851440465181636719829015 (0xBB42B29BFF47F00EA3FCB83378786017)
Полное имя : F:\TREKER\ТЕМР\korn_another_brick_in_the_wall_[tfile.ru].mkv
Формат : Matroska
Версия формата : Version 2
Размер файла : 742 Мбайт
Продолжительность : 13 м. 25 с.
Общий поток : 7729 Кбит/сек
Дата кодирования : UTC 2018-09-06 12:04:56
Программа кодирования : mkvmerge v4.0.0 ('The Stars were mine') сборка от Jun 6 2010 16:18:42
Библиотека кодирования : libebml v1.0.0 + libmatroska v1.0.0
Обложка : Yes
Attachments : cover.jpg

Видео
Идентификатор : 1
Формат : AVC
Формат/Информация : Advanced Video Codec
Профиль формата : High@L4.1
Параметр CABAC формата : Да
Параметр ReFrames формата : 6 кадров
Идентификатор кодека : V_MPEG4/ISO/AVC
Продолжительность : 13 м. 25 с.
Битрейт : 7500 Кбит/сек
Ширина : 1280 пикселей
Высота : 720 пикселей
Соотношение сторон : 16:9
Режим частоты кадров : Постоянный
Частота кадров : 25,000 кадров/сек
Цветовое пространство : YUV
Субдискретизация насыщенности : 4:2:0
Битовая глубина : 8 бит
Тип развёртки : Прогрессивная
Бит/(Пиксели*Кадры) : 0.326
Размер потока : 703 Мбайт (95%)
Библиотека кодирования : x264 core 146 r2538 121396c
Настройки программы : cabac=1 / ref=6 / deblock=1:-1:-1 / analyse=0x3:0x133 / me=umh / subme=10 / psy=1 / psy_rd=1.00:0.15 / mixed_ref=1 / me_range=24 / chroma_me=1 / trellis=2 / 8x8dct=1 / cqm=0 / deadzone=21,11 / fast_pskip=0 / chroma_qp_offset=-3 / threads=12 / lookahead_threads=1 / sliced_threads=0 / nr=0 / decimate=1 / interlaced=0 / bluray_compat=0 / constrained_intra=0 / bframes=3 / b_pyramid=2 / b_adapt=2 / b_bias=0 / direct=1 / weightb=1 / open_gop=0 / weightp=2 / keyint=250 / keyint_min=25 / scenecut=40 / intra_refresh=0 / rc_lookahead=50 / rc=abr / mbtree=1 / bitrate=7500 / ratetol=1.0 / qcomp=0.69 / qpmin=0 / qpmax=69 / qpstep=4 / ip_ratio=1.40 / aq=1:1.00
Default : Нет
Forced : Нет

Аудио
Идентификатор : 2
Формат : AC-3
Формат/Информация : Audio Coding 3
Расширение режима : CM (complete main)
Параметр Endianness формата : Big
Идентификатор кодека : A_AC3
Продолжительность : 13 м. 25 с.
Вид битрейта : Постоянный
Битрейт : 256 Кбит/сек
Каналы : 2 канала
Расположение каналов : Front: L R
Частота : 48,0 КГц
Частота кадров : 31,250 кадров/сек (1536 spf)
Битовая глубина : 16 бит
Метод сжатия : С потерями
Размер потока : 24,6 Мбайт (3%)
Default : Нет
Forced : Нет

pb.wtf



Скачать Korn - Another Brick In The Wall через торрент https://pic1.kartinco.top/images/11/nzp9c.jpg Скачать фильм Korn - Another Brick In The Wall [2018 г., Alternative Metal, WEB-DL 720p]через торрент бесплантно в хорошем качестве Описание: Выступление американской группы ... 10 10 4
Торрент: Зарегистрирован [2018-10-08 17:25] · скачан: 39 раз
Статус: √ проверено
Размер: 742 MB
Как cкачать? Как скачать Korn - Another Brick In The Wall через торрент | UTorrent

28-11-2019 20:33  

Отключить всю рекламу на сайте

    Дорогой пользователь! Огромная просьба, поблагодарите релизера, оцените раздачу и оставьте свои комментарий, если Вы скачали Korn - Another Brick In The Wall через торрент бесплатно! Внесите свою лепту в развитие PiratBit!
    Комментировать посты могут только пользователи прошедшие не сложную регистрацию
    Показать сообщения:    

    Korn - Another Brick In The Wall через торрент
    Скачать бесплатно Korn - Another Brick In The Wall
    Korn - Another Brick In The Wall скачать торрент
    Korn - Another Brick In The Wall смотреть онлайн
    Cкачать фильм Korn - Another Brick In The Wall бесплатно
    Korn - Another Brick In The Wall скачать торрент в хорошем качестве
    Korn - Another Brick In The Wall смотреть онлайн бесплатно в хорошем качестве


    Вы не можете начинать темы
    Вы не можете отвечать на сообщения
    Вы не можете редактировать свои сообщения
    Вы не можете удалять свои сообщения
    Вы не можете голосовать в опросах
    Вы не можете прикреплять файлы к сообщениям
    Вы можете скачивать файлы