Ссылка на приватное зеркало нашего сайта всего за 1$. Внимание количество ограничено!!!

2 сезон

iTunes

1 сезон

1

iTunes

iTunes

iTunes

1 сезон

RePack

30

ИГРА 18+

pack

ВАЖНО

!!Акция!!

Alien_RageХит недели

RePack

MK11
pack

Забери бонус

RePack

jed

!!Акция!!

Alien_Rage

RePack

fifa19

RePack

Assassins Creed: Odyssey

RePack

NEED FOR SPEED™ PAYBACK

4 сезон

9 сезон

Бесстыжие 9 сезон

Все сериалы

все сериалы на PB.wtf

RePack

FAR CRY 5
  

Динозавр /сезон 1, серии 1-10 из 10/ (Евгений Серов, Всеволод Аравин, Олег Компасов) [2018 г., комедия, триллер, детектив, SATRip] pb.wtf

Динозавр через торрент pb.wtf

Размер: 5.66 GB | Добавлен: 2 года назад | Торрент скачан:133 раза
Скачать  

08-10-2018 22:09 Динозавр Скачать торрент  

Динозавр /сезон 1 серии 1-10 из 10/
Год выпуска: 2018
Страна: Россия
Жанр: комедия, триллер, детектив
Продолжительность: 10х~00:45:30
Субтитры: Отсутствуют

Режиссер: Евгений Серов, Всеволод Аравин, Олег Компасов



В ролях: Андрей Смирнов, Илья Любимов, Ольга Тумайкина, Светлана Немоляева, Юрий Чурсин, Александр Панкратов-Черный, Инна Чурикова, Борис Комаров, Вилен Бабичев, Александр Берда и др.

Описание: Престарелый криминальный авторитет Семен Тимофеевич Бабушкин, о чьем воровском таланте в свое время слагали легенды, последние 35 лет Семен Тимофеевич не выходил из тюрьмы, предпочитая ее свободе, где у него не осталось ни друзей, ни родных. Но однажды Бабушкин получает письмо, из которого узнает, что у него, оказывается, все-таки есть на воле кровиночка, сын Слава. По иронии судьбы, младший Бабушкин служит следователем в органах, но в настоящее время нуждается в помощи - его серьезно подставили, и под угрозой оказалась не только его жизнь, но и безопасность его дочери. Тогда благородный бандит принимается налаживать свои старые связи и навыки, чтобы вытащить новоявленную семью из беды.

Качество: SATRip
Формат: AVI
Видео кодек: XviD
Аудио кодек: AC3
Видео: Xvid, 720x400 (16:9), ~1650 Kbps
Аудио#1: AC3, 2 ch, 192 Kbps
скриншот   скриншот   скриншот   скриншот  

Общее
Полное имя : G:\Динозавр (2018)\Серия 01.avi
Формат : AVI
Формат/Информация : Audio Video Interleave
Размер файла : 618 Мбайт
Продолжительность : 46 м. 37 с.
Общий поток : 1851 Кбит/сек
Программа кодирования : VirtualDubMod 1.5.10.3 | www.virtualdub-fr.org || (build 2550/release)
Библиотека кодирования : VirtualDubMod build 2550/release

Видео
Идентификатор : 0
Формат : MPEG-4 Visual
Профиль формата : Advanced Simple@L5
Настройки формата : BVOP1
Параметр BVOP формата : 1
Параметр QPel формата : Нет
Параметр GMC формата : Без точки перехода
Параметр матрицы формата : Default (MPEG)
Идентификатор кодека : XVID
Идентификатор кодека/Подсказка : XviD
Продолжительность : 46 м. 37 с.
Битрейт : 1650 Кбит/сек
Ширина : 720 пикселей
Высота : 400 пикселей
Соотношение сторон : 16:9
Частота кадров : 25,000 кадров/сек
Цветовое пространство : YUV
Субдискретизация насыщенности : 4:2:0
Битовая глубина : 8 бит
Тип развёртки : Прогрессивная
Метод сжатия : С потерями
Бит/(Пиксели*Кадры) : 0.229
Размер потока : 550 Мбайт (89%)
Библиотека кодирования : XviD 1.2.1 (UTC 2008-12-04)

Аудио
Идентификатор : 1
Формат : AC-3
Формат/Информация : Audio Coding 3
Коммерческое название : Dolby Digital
Идентификатор кодека : 2000
Продолжительность : 46 м. 37 с.
Вид битрейта : Постоянный
Битрейт : 192 Кбит/сек
Каналы : 2 канала
Channel layout : L R
Частота : 48,0 КГц
Частота кадров : 31,250 кадров/сек (1536 SPF)
Битовая глубина : 16 бит
Метод сжатия : С потерями
Размер потока : 64,0 Мбайт (10%)
Выравнивание : Разделение по промежуткам
Продолжительность промежутка : 40 мс. (1,00 видеокадр)
Время предзагрузки промежутка : 500 мс.
ServiceKind/String : Complete Main

Внимание! Раздача ведётся путём добавления новых серий; при каждом добавлении создётся новый торрент. Чтобы начать докачку новой серии, пользователям необходимо сделать следующее:
  • Остановить скачивание,
  • Удалить старый торрент у себя из клиента (старые серии удалять не надо),
  • Скачать новый торрент и запустить его у себя в клиенте вместо старого, при этом указать клиенту путь в старую папку куда и должно происходить скачивание новых серий.
Ваш клиент при этом должен произвести хеширование (проверку) старой папки (если не производит сам - помогите ему сделать это), и будет докачивать только те серии которых у вас ещё нет. Старые серии при этом не удаляются, а продолжают раздаваться!

Eсли вы уже удалили старые серии, то предотвратить повторную закачку старых серий можно, отжав галочку в соответсвующих местах при запуске нового торрента. По возможности, желательно не удалять старые серии как можно дольше чтобы релизёр не столько продолжал раздавать старые серии, а смог сконцентрироваться на новых.
pb.wtf



Скачать Динозавр через торрент http://pic1.kartinco.top/images/11/obese.jpg Скачать фильм Динозавр через торрент бесплантно в хорошем качестве Описание: Престарелый криминальный авторитет Семен Тимофеевич Бабушкин, о чьем воровском таланте в свое время слагали легенды, последние 35 ... 9.2 10 12
Торрент: Зарегистрирован [2018-10-12 16:21] · скачан: 133 раз
Статус: √ проверено
Размер: 5.66 GB
Как cкачать? Как скачать Динозавр через торрент | qTorrent

% Раздел Тема Автор DL S | L
Наши сериалы [ 5.89 GB ] Динозавр / Сезон: 2 / Серии: 1-10 из 10 [2020 WEBRip] bober100 Скачать
2 | 0
Наши сериалы [ 12.07 GB ] Динозавр / Сезон: 2 / Серии: 1-10 из 10 [2020 WEBRip 720p] bober100 Скачать
1 | 0
Наши сериалы [ 7.16 GB ] Динозавр / Сезон: 2 / Серии: 1-10 из 10 [2020 WEBRip-AVC] bober100 Скачать
1 | 0
Наши сериалы [ 20.07 GB ] Динозавр / Сезон: 2 / Серии: 1-10 из 10 [2020 WEBRip 1080p] bober100 Скачать
2 | 0
Наши сериалы [ 5.56 GB ] Динозавр / Сезон: 2 / Серии: 1-10 из 10 [2020 SATRip-AVC] aleksan55 Скачать
2 | 0
Наши сериалы [ 6.48 GB ] Динозавр / Сезон: 2 / Серии: 1-10 из 10 [2020 SATRip] bober100 Скачать
1 | 0
Наши сериалы [ 11.58 GB ] Динозавр / Сезон: 1 / Серии: 1-10 из 10 [2018 WEBRip 720p] bober100 Скачать
1 | 0


Последний раз редактировалось: oleg8 (2018-10-12 16:20), всего редактировалось 2 раз(а)

28-11-2019 20:33  

Отключить всю рекламу на сайте

10-10-2018 16:00 Динозавр Скачать торрент  

Ожидание.....
Закачки нет...
Ожидание..
Не раздают?pb.wtf



10-10-2018 16:03 Динозавр Скачать торрент  

ну хоть пошло.
Спасибо большоеpb.wtf



10-10-2018 16:13 Динозавр Скачать торрент  

теперь количество серий не совпадает..pb.wtf



10-10-2018 16:15 Динозавр Скачать торрент  

только было большеpb.wtf



10-10-2018 17:00 Динозавр Скачать торрент  

все ..
Спасибо
Разобрался со всемpb.wtf



    Дорогой пользователь! Огромная просьба, поблагодарите релизера, оцените раздачу и оставьте свои комментарий, если Вы скачали Динозавр через торрент бесплатно! Внесите свою лепту в развитие PiratBit!
    Комментировать посты могут только пользователи прошедшие не сложную регистрацию
    Показать сообщения:    

    Динозавр через торрент
    Скачать бесплатно Динозавр
    Динозавр скачать торрент
    Динозавр смотреть онлайн
    Cкачать фильм Динозавр бесплатно
    Динозавр скачать торрент в хорошем качестве
    Динозавр смотреть онлайн бесплатно в хорошем качестве


    Вы не можете начинать темы
    Вы не можете отвечать на сообщения
    Вы не можете редактировать свои сообщения
    Вы не можете удалять свои сообщения
    Вы не можете голосовать в опросах
    Вы не можете прикреплять файлы к сообщениям
    Вы можете скачивать файлы