Ссылка на приватное зеркало всего за 1$. Внимание количество ограничено!!!

OK

1+1

iTunes

мы

OK

1

WEB-DLRip

Джокер

Пифагор

Ведьмак / The Witcher сериал

iTunes

ПШазам

ОК

Оно 2

iTunes

30
pack

Вам бонус

ВАЖНО

!!Акция!!

Alien_RageХит недели

RePack

Resident Evil 21

ИГРА 18+

pack

RePack

jed

RePack

fifa19

RePack

Assassins Creed: Odyssey

RePack

NEED FOR SPEED™ PAYBACK

4 сезон

9 сезон

Бесстыжие 9 сезон

Все сериалы

все сериалы на PB.wtf

RePack

FAR CRY 5
  

День Зомбанутого Валентина / Valentine DayZ (Марк Аллен Майклс) [2018, Ужасы, WEB-DL 720p] MVO ["Синема УС"] pb.wtf

День Зомбанутого Валентина через торрент pb.wtf

Размер: 3.03 GB | Добавлен: 1 год 3 мес. назад | Торрент скачан:16 раз
Скачать  

09-10-2018 00:29 День Зомбанутого Валентина Скачать торрент  

День Зомбанутого Валентина / Valentine DayZГод выпуска: 2018
Страна: США
Жанр: Ужасы
Продолжительность: 01:21:40
Перевод: Любительский (многоголосый) | "Синема УС"
Субтитры: отсутствуют

Режиссер: Марк Аллен Майклс

rating

В ролях:

Даллас Вальдес, Кэрри Киган, Роберт Аллен Мюкс, Татьяна Ромао, Дайан Голднер, Кейт Риис Дейвис, Курт Ламберт, Дэнни Грюнберг, Джонни Уайт, Бадди Клеменц

Описание:

История двух влюбленных, которые захотели пожениться, но мировая эпидемия неизвестного вируса ослабила их пыл.

Качество: WEB-DL 720p
Формат: MKV

Видео: h.264, 4 931 kb/s, 1280x532
Аудио#1: Русский, (AC3, 2 ch, 384 Кбит/с)
скриншот  скриншот  скриншот  

Общее
Уникальный идентификатор : 234591838372254806367188001905562310402 (0xB07CBE9F9CDE97ED9F27FD0EF03F5702)
Полное имя : D:\Valentine.DayZ.2018.P.WEB-DL.72Op_KOSHARA.mkv
Формат : Matroska
Версия формата : Version 2
Размер файла : 3,03 Гбайт
Продолжительность : 1 ч. 21 м.
Режим общего битрейта : Переменный
Общий поток : 5317 Кбит/сек
Дата кодирования : UTC 2018-10-08 10:39:07
Программа кодирования : mkvmerge v8.3.0 ('Over the Horizon') 64bit
Библиотека кодирования : libebml v1.3.1 + libmatroska v1.4.2

Видео
Идентификатор : 1
Формат : AVC
Формат/Информация : Advanced Video Codec
Профиль формата : High@L4.1
Параметр CABAC формата : Да
Параметр RefFrames формата : 4 кадра
Идентификатор кодека : V_MPEG4/ISO/AVC
Продолжительность : 1 ч. 21 м.
Вид битрейта : Переменный
Битрейт : 4931 Кбит/сек
Максимальный битрейт : 5500 Кбит/сек
Ширина : 1280 пикселей
Высота : 532 пикселя
Соотношение сторон : 2,40:1
Режим частоты кадров : Постоянный
Частота кадров : 23,976 (24000/1001) кадра/сек
Стандарт вещания : Component
Цветовое пространство : YUV
Субдискретизация насыщенности : 4:2:0
Битовая глубина : 8 бит
Тип развёртки : Прогрессивная
Бит/(Пиксели*Кадры) : 0.296
Размер потока : 2,75 Гбайт (91%)
Default : Да
Forced : Нет
Цветовой диапазон : Limited
Основные цвета : BT.709
Характеристики трансфера : BT.709
Коэффициенты матрицы : BT.709

Аудио
Идентификатор : 2
Формат : AC-3
Формат/Информация : Audio Coding 3
Расширение режима : CM (complete main)
Параметр Endianness формата : Big
Идентификатор кодека : A_AC3
Продолжительность : 1 ч. 21 м.
Вид битрейта : Постоянный
Битрейт : 384 Кбит/сек
Каналы : 2 канала
Расположение каналов : Front: L R
Частота : 48,0 КГц
Частота кадров : 31,250 кадров/сек (1536 spf)
Метод сжатия : С потерями
Размер потока : 224 Мбайт (7%)
Default : Да
Forced : Нет

pb.wtf



Скачать День Зомбанутого Валентина через торрент http://pic1.kartinco.top/images/11/4he5z.jpg Скачать фильм День Зомбанутого Валентина через торрент бесплантно в хорошем качестве Описание: История двух влюбленных, которые захотели пожениться, но мировая эпидемия неизвестного вируса ослабила их ... 10 10 3
Торрент: Зарегистрирован [2018-10-09 00:29] · скачан: 16 раз
Статус: T временная
Размер: 3.03 GB
Как cкачать? Как скачать День Зомбанутого Валентина через торрент | qTorrent

% Раздел Тема Автор DL S | L
T Фильмы (мультфильмы) cо спонсором показа (Новинки AVI/MKV) [ 1.37 GB ] День Зомбанутого Валентина / Valentine DayZ [2018 WEB-DLRip Любительский ] [Синема УС] Скорпион1976 Скачать
2 | 0

28-11-2019 20:33  

Отключить всю рекламу на сайте

    Дорогой пользователь! Огромная просьба, поблагодарите релизера, оцените раздачу и оставьте свои комментарий, если Вы скачали День Зомбанутого Валентина через торрент бесплатно! Внесите свою лепту в развитие PiratBit!
    Комментировать посты могут только пользователи прошедшие не сложную регистрацию
    Показать сообщения:    

    День Зомбанутого Валентина через торрент
    Скачать бесплатно День Зомбанутого Валентина
    День Зомбанутого Валентина скачать торрент
    День Зомбанутого Валентина смотреть онлайн
    Cкачать фильм День Зомбанутого Валентина бесплатно
    День Зомбанутого Валентина скачать торрент в хорошем качестве
    День Зомбанутого Валентина смотреть онлайн бесплатно в хорошем качестве


    Вы не можете начинать темы
    Вы не можете отвечать на сообщения
    Вы не можете редактировать свои сообщения
    Вы не можете удалять свои сообщения
    Вы не можете голосовать в опросах
    Вы не можете прикреплять файлы к сообщениям
    Вы можете скачивать файлы