новый адрес пиратбит piratbit
Мега распродажа FORZA HORIZON 4 ULTIMATE+ВСЕ DLC+ОНЛАЙН всего за 499р. 349 руб. (супер цена). Внимание количество ограничено!!!

iTunes

1+1

iTunes

мы

iTunes

1

iTunes

Чернобыль

iTunes

Ральф против интернета

Лицензия

ПШазам

Лицензия

Игра престолов

Лицензия

30
pack

ВАЖНО

!!Акция!!

Alien_RageХит недели

RePack

Resident Evil 21

ИГРА 18+

pack

RePack

Metro:Exodus

!!Акция!!

Alien_Rage

RePack

fifa19

RePack

Assassins Creed: Odyssey

RePack

NEED FOR SPEED™ PAYBACK

3 сезон

9 сезон

Бесстыжие 9 сезон

Все сериалы

все сериалы на PB.wtf

RePack

FAR CRY 5
Ребята, катастрофически не хватает 1900р. для оплаты серверов за Октябрь (всвязи с блокировками трафик упал в 3 раза), 1-2р., выручайте.
  

Ходячие мертвецы / The Walking Dead / Сезон: 9 / Серии: 1-16 из 16 (Эрнест Р. Дикерсон, Грег Никотеро, Гай Ферленд) [2018, Ужасы, триллер, драма, WEB-DL 720p] MVO [Jaskier] pb.wtf

Ходячие мертвецы через торрент pb.wtf

Качают: 1 [ 0 KB/s ]
Размер: 26.87 GB | Добавлен: 3 мес. 22 д. назад | Торрент скачан:8 раз
Скачать  

09-10-2018 01:25 Ходячие мертвецы Скачать торрент  

Ходячие мертвецы | The Walking Dead ✦ Название: Ходячие мертвецы
✦ Оригинальное название: The Walking Dead
✦ Год выпуска: 2018
✦ Страна: США
✦ Жанр: ужасы, триллер, драма
✦ Продолжительность: ~00:55:00
✦ Перевод: Профессиональный (многоголосый закадровый) | Студия Jaskier
✦ Субтитры: английские

✦ Режиссёры: Эрнест Р. Дикерсон, Грег Никотеро, Гай Ферленд

В ролях: Эндрю Линкольн, Скотт Уилсон, Данай Джекесай Гурира, Дэвид Моррисси, Стивен Юн, Лорен Коэн, Чендлер Риггз, Норман Ридус, Мелисса Сюзанн МакБрайд, Эмили Кинни, Чад Коулмэн, Сонеква Мартин и другие.

Описание: Сериал рассказывает историю жизни семьи шерифа после того, как «зомби» — эпидемия апокалиптических масштабов захлестнула земной шар. Шериф Рик Граймс путешествует со своей семьей и небольшой группой выживших в поисках безопасного места для жизни. Но постоянный страх смерти каждый день приносит тяжелые потери, заставляя героев почувствовать глубины человеческой жестокости. Рик пытается спасти свою семью, и открывает для себя, что всепоглощающий страх тех, кто выжил, может быть опаснее бессмысленных мертвецов, бродящих по земле.

rating

✦ Качество: WEB-DL 720p
✦ Формат: MKV

✦ Видео: 1280x720 (16:9) | X264/MPEG4-AVC | ~4000 kbps | 23.976 fps
✦ Аудио 1: AC3 | 48 KHz | 5.1 (Front: L С R Side: L R) + LFE | ~384 kbps [RUS]
✦ Аудио 2: AC3 | 48 KHz | 5.1 (Front: L С R Side: L R) + LFE | ~384 kbps [ENG]


Реклама: Присутствует звуковая (два раза в начале и конце по 12 сек.)
Переведено и озвучено: студией Jaskier
Общее
Уникальный идентификатор                 : 181552118982392042932971333773163493036 (0x8895AA8ECDCB36A9A469AAC9820FF6AC)
Полное имя                               : G:\Загрузки\The.Walking.Dead.S09E01.720p.WEB-DL.DD5.1.H.264-Jaskier.mkv
Формат                                   : Matroska
Версия формата                           : Version 2
Размер файла                             : 1,93 Гбайт
Продолжительность                        : 58 м. 34 с.
Общий поток                              : 4715 Кбит/сек
Дата кодирования                         : UTC 2018-10-08 22:37:40
Программа кодирования                    : mkvmerge v7.8.0 ('River Man') 32bit built on Apr  3 2015 12:11:22
Библиотека кодирования                   : libebml v1.3.1 + libmatroska v1.4.2

Видео
Идентификатор                            : 1
Формат                                   : AVC
Формат/Информация                        : Advanced Video Codec
Профиль формата                          : High@L3.1
Настройки формата                        : CABAC / 5 Ref Frames
Параметр CABAC формата                   : Да
Параметр RefFrames формата               : 5 кадров
Идентификатор кодека                     : V_MPEG4/ISO/AVC
Продолжительность                        : 58 м. 34 с.
Битрейт                                  : 3853 Кбит/сек
Ширина                                   : 1280 пикселей
Высота                                   : 720 пикселей
Соотношение сторон                       : 16:9
Режим частоты кадров                     : Постоянный
Частота кадров                           : 23,976 (24000/1001) кадра/сек
Цветовое пространство                    : YUV
Субдискретизация насыщенности            : 4:2:0
Битовая глубина                          : 8 бит
Тип развёртки                            : Прогрессивная
Бит/(Пиксели*Кадры)                      : 0.174
Размер потока                            : 1,58 Гбайт (82%)
Язык                                     : English
Default                                  : Да
Forced                                   : Нет
Цветовой диапазон                        : Limited
Основные цвета                           : BT.709
Характеристики трансфера                 : BT.709
Коэффициенты матрицы                     : BT.709

Аудио #1
Идентификатор                            : 2
Формат                                   : AC-3
Формат/Информация                        : Audio Coding 3
Коммерческое название                    : Dolby Digital
Идентификатор кодека                     : A_AC3
Продолжительность                        : 58 м. 34 с.
Вид битрейта                             : Постоянный
Битрейт                                  : 384 Кбит/сек
Каналы                                   : 6 каналов
Channel layout                           : L R C LFE Ls Rs
Частота                                  : 48,0 КГц
Частота кадров                           : 31,250 кадров/сек (1536 SPF)
Битовая глубина                          : 16 бит
Метод сжатия                             : С потерями
Размер потока                            : 161 Мбайт (8%)
Заголовок                                : Jaskier
Язык                                     : Russian
ServiceKind/String                       : Complete Main
Default                                  : Да
Forced                                   : Нет

Аудио #2
Идентификатор                            : 3
Формат                                   : AC-3
Формат/Информация                        : Audio Coding 3
Коммерческое название                    : Dolby Digital
Идентификатор кодека                     : A_AC3
Продолжительность                        : 58 м. 34 с.
Вид битрейта                             : Постоянный
Битрейт                                  : 384 Кбит/сек
Каналы                                   : 6 каналов
Channel layout                           : L R C LFE Ls Rs
Частота                                  : 48,0 КГц
Частота кадров                           : 31,250 кадров/сек (1536 SPF)
Битовая глубина                          : 16 бит
Метод сжатия                             : С потерями
Размер потока                            : 161 Мбайт (8%)
Язык                                     : English
ServiceKind/String                       : Complete Main
Default                                  : Нет
Forced                                   : Нет

Текст
Идентификатор                            : 4
Формат                                   : UTF-8
Идентификатор кодека                     : S_TEXT/UTF8
Идентификатор кодека/Информация          : UTF-8 Plain Text
Язык                                     : English
Default                                  : Нет
Forced                                   : Нет
скриншот  скриншот  скриншот  
Когда раздача ведётся путём добавления новых серий, при каждом добавлении создётся новый торрент. Чтобы начать докачку новой серии, пользователям необходимо сделать следующее:
(1) остановить скачивание,
(2) удалить старый торрент у себя из клиента (старые серии удалять не надо),
(3) скачать новый торрент и запустить его у себя в клиенте вместо старого, при этом указать клиенту путь в старую папку, куда и должно происходить скачивание новых серий.
Ваш клиент при этом должен произвести хеширование (проверку) старой папки (если не производит сам - помогите ему сделать это), и будет докачивать только те серии, которых у вас ещё нет. Старые серии при этом не удаляются, а продолжают раздаваться!
Eсли вы уже удалили старые серии, то предотвратить повторную закачку старых серий можно, отжав галочку в соответсвующих местах при запуске нового торрента. По возможности, желательно не удалять старые серии как можно дольше, чтобы релизёр не столько продолжал раздавать старые серии, а смог сконцентрироваться на новых.
pb.wtf



Скачать Ходячие мертвецы через торрент http://img10.lostpic.net/2018/10/09/94b57f83e931ed4061650c03681207c6.png Скачать фильм Ходячие мертвецы через торрент бесплантно в хорошем качестве Описание: Сериал рассказывает историю жизни семьи шерифа после того, как «зомби» — эпидемия апокалиптических масштабов захлестнула земной ... 9.9 10 13
Торрент: Зарегистрирован [2019-07-23 14:50] · скачан: 8 раз
Статус: √ проверено
Размер: 26.87 GB
Как cкачать? Как скачать Ходячие мертвецы через торрент | qTorrent

% Раздел Тема Автор DL S | L
Ходячие мертвецы (The Walking Dead) [ 9.37 GB ] Ходячие мертвецы / The Walking Dead / Сезон: 9 / Серии: 1-16 из 16 [2018 WEB-DLRip] MVO [LostFilm] bober100 Скачать
7 | 1
Ходячие мертвецы (The Walking Dead) [ 8.89 GB ] Ходячие мертвецы / The Walking Dead / Сезон: 9 / Серии: 1-16 из 16 [2018 WEB-DLRip] MVO [FOX] bober100 Скачать
2 | 1
Ходячие мертвецы (The Walking Dead) [ 30.56 GB ] Ходячие мертвецы / The Walking Dead / Сезон: 9 / Серии: 1-16 из 16 [2018 WEB-DL 720p] MVO [LostFilm] bober100 Скачать
2 | 1
Ходячие мертвецы (The Walking Dead) [ 69.33 GB ] Ходячие мертвецы / The Walking Dead / Сезон: 9 / Серии: 1-16 из 16 [2018 WEB-DL 1080p] MVO [LostFilm] bober100 Скачать
1 | 0
Ходячие мертвецы (The Walking Dead) [ 31.86 GB ] Ходячие мертвецы / The Walking Dead / Сезон: 9 / Серии: 1-16 из 16 [2018 WEB-DL 1080p] MVO [FOX] bober100 Скачать
4 | 2
Ходячие мертвецы (The Walking Dead) [ 65.1 GB ] Ходячие мертвецы / The Walking Dead / Сезон: 9 / Серии: 1-16 из 16 [2018 WEB-DL 1080p] MVO [Jaskier] bober100 Скачать
1 | 0
Ходячие мертвецы (The Walking Dead) [ 8.94 GB ] Ходячие мертвецы / The Walking Dead / Сезон: 9 / Серии: 1-16 из 16 [2018 WEB-DLRip] MVO [Jaskier] bober100 Скачать
1 | 0


>> Регистрируемся здесь <<






Отзывы и комментарии о схеме читаем и пишем здесь: ---> Отзывы и комментарии о схеме

Новые благодарочки в телеграм довольных пользователей:
скриншот   скриншот   скриншот   скриншот   скриншот
    Дорогой пользователь! Огромная просьба, поблагодарите релизера, оцените раздачу и оставьте свои комментарий, если Вы скачали Ходячие мертвецы через торрент бесплатно! Внесите свою лепту в развитие PiratBit!
    Комментировать посты могут только пользователи прошедшие не сложную регистрацию
    Показать сообщения:    

    Ходячие мертвецы через торрент
    Скачать бесплатно Ходячие мертвецы
    Ходячие мертвецы скачать торрент
    Ходячие мертвецы смотреть онлайн
    Cкачать фильм Ходячие мертвецы бесплатно
    Ходячие мертвецы скачать торрент в хорошем качестве
    Ходячие мертвецы смотреть онлайн бесплатно в хорошем качестве


    Вы не можете начинать темы
    Вы не можете отвечать на сообщения
    Вы не можете редактировать свои сообщения
    Вы не можете удалять свои сообщения
    Вы не можете голосовать в опросах
    Вы не можете прикреплять файлы к сообщениям
    Вы можете скачивать файлы