новый адрес
Ссылка на приватное зеркало всего за 1$. Внимание количество ограничено!!!

iTunes

1+1

iTunes

мы

WEB-DL

1

iTunes

Чернобыль

iTunes

Ральф против интернета

Лицензия

ПШазам

Лицензия

Оно 2

Лицензия

30
pack

Вам бонус

ВАЖНО

!!Акция!!

Alien_RageХит недели

RePack

Resident Evil 21

ИГРА 18+

pack

RePack

jed

!!Акция!!

Alien_Rage

RePack

fifa19

RePack

Assassins Creed: Odyssey

RePack

NEED FOR SPEED™ PAYBACK

3 сезон

9 сезон

Бесстыжие 9 сезон

Все сериалы

все сериалы на PB.wtf

RePack

FAR CRY 5
Ребята, катастрофически не хватает 1900р. для оплаты серверов за Октябрь (всвязи с блокировками трафик упал в 3 раза), 1-2р., выручайте.
  

Вторжение / Проникновение / Breaking In (Джеймс МакТиг) [2018, боевик, триллер, драма, криминал, BDRip-AVC] Дубляж - [Лицензия / iTunes] (Театральная версия) - ExKinoRay pb.wtf

Вторжение через торрент pb.wtf

Размер: 1.51 GB | Добавлен: 1 год 1 мес. назад | Торрент скачан:717 раз
Скачать  

09-10-2018 02:31 Вторжение Скачать торрент  

Информация о фильме
Название: Проникновение
Оригинальное название: Breaking In
Год выпуска: 2018
Жанр: Боевик, триллер, драма, криминал
Режиссер: Джеймс МакТиг
В ролях: Гэбриэл Юнион, Билли Бёрк, Ричард Кебрал, Аджиона Алексус, Леви Миден, Сет Карр, Марк Фурз, Джейсон Уинстон Джордж, Криста Миллер, Дэмиен Лик

Описание:
Мать с двумя детьми после смерти отца приезжает в уединённый дом, чтобы разобраться с делами усопшего. Особняк оборудован по последнему слову техники и готов к продолжительной осаде. Спокойствие нарушает группа бандитов, мечтающая добраться до миллионов, скрытых в хранилище особняка. Но никакие ловушки или непробиваемые двери не смогут остановить разъярённую мать, когда её детям грозит опасность.

rating

Страна: США
Студия: Breaking In Pictures, Will Packer Productions
Продолжительность: 01:28:01
Перевод: Дублированный | iTunes

Формат: MKV
Качество: BDRip-AVC
Видео: MPEG-4 AVC, 1024x428 (2.40:1), 23,976 fps, ~ 1620 kbps
Аудио #01: 48 kHz, AC3, 5.1, 384 Kbps | iTunes | RUS |
Аудио #02: 48 kHz, AC3, 5.1, 448 Kbps | Оригинал | ENG |
Субтитры: Английские (Full)
Навигация по главам: Есть
General
Unique ID : 216567662814537782918093041423161285902 (0xA2ED6A2878BAEAB2BF5C3BDEA744DD0E)
Complete name : D:\Breaking.in.2018.BDRip.AVC.ExKinoRay.mkv
Format : Matroska
Format version : Version 2
File size : 1.51 GiB
Duration : 1 h 28 min
Overall bit rate : 2 450 kb/s
Movie name : Breaking In 2018 from ExKinoRay
Encoded date : UTC 2018-10-08 23:50:22
Writing application : mkvmerge v5.6.0 ('Kenya Kane') built on May 27 2012 16:44:04
Writing library : libebml v1.2.3 + libmatroska v1.3.0

Video
ID : 1
Format : AVC
Format/Info : Advanced Video Codec
Format profile : High@L4.1
Format settings, CABAC : Yes
Format settings, ReFrames : 12 frames
Codec ID : V_MPEG4/ISO/AVC
Duration : 1 h 28 min
Bit rate : 1 620 kb/s
Width : 1 024 pixels
Height : 428 pixels
Display aspect ratio : 2.40:1
Frame rate mode : Constant
Frame rate : 23.976 (24000/1001) FPS
Color space : YUV
Chroma subsampling : 4:2:0
Bit depth : 8 bits
Scan type : Progressive
Bits/(Pixel*Frame) : 0.154
Stream size : 988 MiB (64%)
Title : Enigma
Writing library : x264 core 148 r2638 7599210
Encoding settings : cabac=1 / ref=12 / deblock=1:-2:-2 / analyse=0x3:0x113 / me=umh / subme=11 / psy=1 / psy_rd=1.02:0.10 / mixed_ref=1 / me_range=32 / chroma_me=1 / trellis=2 / 8x8dct=1 / cqm=0 / deadzone=21,11 / fast_pskip=0 / chroma_qp_offset=-3 / threads=12 / lookahead_threads=3 / sliced_threads=0 / nr=0 / decimate=1 / interlaced=0 / bluray_compat=0 / constrained_intra=0 / bframes=12 / b_pyramid=2 / b_adapt=2 / b_bias=0 / direct=3 / weightb=1 / open_gop=0 / weightp=2 / keyint=240 / keyint_min=23 / scenecut=40 / intra_refresh=0 / rc_lookahead=40 / rc=2pass / mbtree=0 / bitrate=1620 / ratetol=1.0 / qcomp=0.60 / qpmin=0 / qpmax=51 / qpstep=4 / cplxblur=20.0 / qblur=0.5 / vbv_maxrate=50000 / vbv_bufsize=62500 / nal_hrd=none / filler=0 / ip_ratio=1.40 / pb_ratio=1.30 / aq=2:0.90
Default : Yes
Forced : No
Color range : Limited
Color primaries : BT.709
Transfer characteristics : BT.709
Matrix coefficients : BT.709

Audio #1
ID : 2
Format : AC-3
Format/Info : Audio Coding 3
Mode extension : CM (complete main)
Format settings, Endianness : Big
Codec ID : A_AC3
Duration : 1 h 28 min
Bit rate mode : Constant
Bit rate : 384 kb/s
Channel(s) : 6 channels
Channel positions : Front: L C R, Side: L R, LFE
Sampling rate : 48.0 kHz
Frame rate : 31.250 FPS (1536 spf)
Compression mode : Lossy
Stream size : 242 MiB (16%)
Title : iTunes
Language : Russian
Default : Yes
Forced : No

Audio #2
ID : 3
Format : AC-3
Format/Info : Audio Coding 3
Mode extension : CM (complete main)
Format settings, Endianness : Big
Codec ID : A_AC3
Duration : 1 h 28 min
Bit rate mode : Constant
Bit rate : 448 kb/s
Channel(s) : 6 channels
Channel positions : Front: L C R, Side: L R, LFE
Sampling rate : 48.0 kHz
Frame rate : 31.250 FPS (1536 spf)
Compression mode : Lossy
Stream size : 282 MiB (18%)
Language : English
Default : No
Forced : No

Text
ID : 4
Format : UTF-8
Codec ID : S_TEXT/UTF8
Codec ID/Info : UTF-8 Plain Text
Language : English
Default : No
Forced : No

Menu
00:00:00.000 : :Chapter 01
00:05:16.231 : :Chapter 02
00:10:03.727 : :Chapter 03
00:14:04.592 : :Chapter 04
00:17:30.089 : :Chapter 05
00:21:44.970 : :Chapter 06
00:25:34.865 : :Chapter 07
00:31:09.032 : :Chapter 08
00:36:50.247 : :Chapter 09
00:40:48.069 : :Chapter 10
00:44:20.323 : :Chapter 11
00:50:27.689 : :Chapter 12
00:54:23.885 : :Chapter 13
01:00:17.572 : :Chapter 14
01:04:23.358 : :Chapter 15
01:09:53.396 : :Chapter 16
01:13:10.886 : :Chapter 17
01:16:16.070 : :Chapter 18
01:20:52.264 : :Chapter 19
01:25:26.121 : :Chapter 20
01:28:01.484 : :Chapter 21
Релиз от:

Автор релиза: pb.wtf



Скачать Вторжение через торрент https://c.radikal.ru/c17/1810/57/fa95a722f321.png Скачать фильм Вторжение через торрент бесплантно в хорошем качестве Описание: Мать с двумя детьми после смерти отца приезжает в уединённый дом, чтобы разобраться с делами усопшего. Особняк оборудован по ... 9.8 10 11
Info! Золотая раздача, скачанное не засчитывается.
Торрент: Зарегистрирован [2018-10-09 02:31] · скачан: 717 раз
Статус: √ проверено
Размер: 1.51 GB
Как cкачать? Как скачать Вторжение через торрент | qTorrent

28-11-2019 20:33  

Отключить всю рекламу на сайте

09-10-2018 14:40 Вторжение Скачать торрент  

Забираю комент позжеpb.wtf



10-10-2018 15:15 Вторжение Скачать торрент  

Отличный фильм рекомендую оценка 4 из 5.pb.wtf



    Дорогой пользователь! Огромная просьба, поблагодарите релизера, оцените раздачу и оставьте свои комментарий, если Вы скачали Вторжение через торрент бесплатно! Внесите свою лепту в развитие PiratBit!
    Комментировать посты могут только пользователи прошедшие не сложную регистрацию
    Показать сообщения:    

    Вторжение через торрент
    Скачать бесплатно Вторжение
    Вторжение скачать торрент
    Вторжение смотреть онлайн
    Cкачать фильм Вторжение бесплатно
    Вторжение скачать торрент в хорошем качестве
    Вторжение смотреть онлайн бесплатно в хорошем качестве


    Вы не можете начинать темы
    Вы не можете отвечать на сообщения
    Вы не можете редактировать свои сообщения
    Вы не можете удалять свои сообщения
    Вы не можете голосовать в опросах
    Вы не можете прикреплять файлы к сообщениям
    Вы можете скачивать файлы