Ссылка на приватное зеркало нашего сайта всего за 1$. Внимание количество ограничено!!!

2 сезон

iTunes

1 сезон

1

2 сезон

2 сезон

iTunes

1 сезон

RePack

30

Ultimate

ВАЖНО

ИГРА 18+

pack

RePack

MK11
pack

Забери бонус

RePack

jed

!!Акция!!

Alien_Rage

RePack

fifa19

RePack

Assassins Creed: Odyssey

RePack

NEED FOR SPEED™ PAYBACK

4 сезон

9 сезон

Бесстыжие 9 сезон

Все сериалы

все сериалы на PB.wtf

RePack

FAR CRY 5
  

Человек в высоком замке / The Man in the High Castle / Сезон: 3 / Серии: 1-10 из 10 (Дэниэл Персивал, Карин Кусама, Джон Фоусет) [2018, фантастика, триллер, драма, WEBRip] MVO [LostFilm] pb.wtf

Человек в высоком замке через торрент pb.wtf

Размер: 6.21 GB | Добавлен: 1 год 11 мес. назад | Торрент скачан:69 раз
Скачать  

09-10-2018 02:32 Человек в высоком замке Скачать торрент  

Человек в высоком замке / The Man in the High Castle Год выпуска: 2018
Страна: США
Жанр: фантастика, триллер, драма
Продолжительность: ~01:00:00 серия
Перевод: Профессиональный многоголосый |
Субтитры: отсутствуют

Режиссер: Дэниэл Персивал, Карин Кусама, Джон Фоусет

rating

В ролях:

Алекса Давалос (Juliana Crain), Люк Клеинтенк (Joe Blake), DJ Куоллс (Ed McCarthy), Джоэль де ла Фуэнте (Inspector Kido), Кэри-Хироюки Тагава (Nobusuke Tagomi), Руфус Сьюэлл (Obergruppenführer John Smith), Руперт Эванс (Frank Frink), Чела Хорсдэл (Helen Smith), Бреннан Браун (Robert Childan), Арнольд Чун (Kotomichi), Ли Шортен (Sergeant Yoshida), Куинн Лорд (Thomas Smith)

Описание:

Германия и Япония выиграли Вторую мировую. Америка разделена пополам между победителями, но, разумеется, спустя много лет после поражения (действие разворачивается в 1962-м) сознательные американцы организуют глубоко засекреченное подполье. Занимаются повстанцы в основном распространением странной кинохроники, на которой показана победа в войне союзнических войск. Именно с этими пленками в руках в нейтральную зону между двумя Америками отправляются Джо и Джулс — юноша и девушка, пробующие свои силы в борьбе с режимом.

Качество: WEBRip | Без заставки и логотипа LostFilm.
Формат: AVI

Видео: 720x400 at 23.976 fps, XviD, ~1400 kbps avg
Аудио#1: Russian: 48 kHz, MP3, 2/0 (L,R) ch, ~128 kbps avg |Многоголосый закадровый, LostFilm|
Аудио#2: English: 48 kHz, MP3, 2/0 (L,R) ch, ~128 kbps avg
скриншот  скриншот  скриншот  скриншот  

Общее
Полное имя : D:\Человек в высоком замке (сезон 3) The Man in the High Castle (2018) WEBRip - LostFilm\The.Man.In.The.High.Castle.S03E01.WEBRip.Rus.Eng.DV.LostFilm.avi
Формат : AVI
Формат/Информация : Audio Video Interleave
Размер файла : 813 Мбайт
Продолжительность : 1 ч. 10 м.
Общий поток : 1623 Кбит/сек
Название фильма : The.Man.In.The.High.Castle.S03E01.WEBRip.Rus.Eng.DV.LostFilm / NNM-Club
Программа кодирования : VirtualDubModRus 1.5.10.2 (build 2542/release)
Библиотека кодирования : VirtualDubMod build 2542/release

Видео
Идентификатор : 0
Формат : MPEG-4 Visual
Профиль формата : Advanced Simple@L5
Параметр BVOP формата : 2
Параметр QPel формата : Нет
Параметр GMC формата : Без точки перехода
Параметр матрицы формата : Default (H.263)
Идентификатор кодека : XVID
Идентификатор кодека/Подсказка : XviD
Продолжительность : 1 ч. 10 м.
Битрейт : 1353 Кбит/сек
Ширина : 720 пикселей
Высота : 400 пикселей
Соотношение сторон : 16:9
Частота кадров : 23,976 (24000/1001) кадра/сек
Цветовое пространство : YUV
Субдискретизация насыщенности : 4:2:0
Битовая глубина : 8 бит
Тип развёртки : Прогрессивная
Метод сжатия : С потерями
Бит/(Пиксели*Кадры) : 0.196
Размер потока : 678 Мбайт (83%)
Заголовок : Rip by DriverV / NNM-Club
Библиотека кодирования : XviD 67

Аудио #1
Идентификатор : 1
Формат : MPEG Audio
Версия формата : Version 1
Профиль формата : Layer 3
Режим : Joint stereo
Расширение режима : MS Stereo
Идентификатор кодека : 55
Идентификатор кодека/Подсказка : MP3
Продолжительность : 1 ч. 10 м.
Вид битрейта : Постоянный
Битрейт : 128 Кбит/сек
Каналы : 2 канала
Частота : 48,0 КГц
Метод сжатия : С потерями
Размер потока : 64,1 Мбайт (8%)
Выравнивание : Соединение по промежуткам
Продолжительность промежутка : 42 мс. (1,00 видеокадр)
Время предзагрузки промежутка : 504 мс.

Аудио #2
Идентификатор : 2
Формат : MPEG Audio
Версия формата : Version 1
Профиль формата : Layer 3
Режим : Joint stereo
Расширение режима : MS Stereo
Идентификатор кодека : 55
Идентификатор кодека/Подсказка : MP3
Продолжительность : 1 ч. 10 м.
Вид битрейта : Постоянный
Битрейт : 128 Кбит/сек
Каналы : 2 канала
Частота : 48,0 КГц
Метод сжатия : С потерями
Размер потока : 64,1 Мбайт (8%)
Выравнивание : Соединение по промежуткам
Продолжительность промежутка : 42 мс. (1,00 видеокадр)
Время предзагрузки промежутка : 504 мс.

Когда раздача ведётся путём добавления новых серий, при каждом добавлении создётся новый торрент. Чтобы начать докачку новой серии, пользователям необходимо сделать следующее:
(1) остановить скачивание,
(2) удалить старый торрент у себя из клиента (старые серии удалять не надо),
(3) скачать новый торрент и запустить его у себя в клиенте вместо старого, при этом указать клиенту путь в старую папку, куда и должно происходить скачивание новых серий.
Ваш клиент при этом должен произвести хеширование (проверку) старой папки (если не производит сам - помогите ему сделать это), и будет докачивать только те серии, которых у вас ещё нет. Старые серии при этом не удаляются, а продолжают раздаваться!
Eсли вы уже удалили старые серии, то предотвратить повторную закачку старых серий можно, отжав галочку в соответсвующих местах при запуске нового торрента. По возможности, желательно не удалять старые серии как можно дольше, чтобы релизёр не столько продолжал раздавать старые серии, а смог сконцентрироваться на новых.
pb.wtf



Скачать Человек в высоком замке через торрент http://i91.fastpic.ru/big/2018/1006/de/0086ca2b0388ff49ee5d4ba36198e0de.jpg Скачать фильм Человек в высоком замке через торрент бесплантно в хорошем качестве Описание: Германия и Япония выиграли Вторую мировую. Америка разделена пополам между победителями, но, разумеется, спустя много лет после ... 10 10 6
Торрент: Зарегистрирован [2018-12-04 07:39] · скачан: 69 раз
Статус: √ проверено
Размер: 6.21 GB
Как cкачать? Как скачать Человек в высоком замке через торрент | qTorrent

% Раздел Тема Автор DL S | L
Фильмы с украинским озвучиванием [ 87.92 GB ] Человек в высоком замке / The Man in the High Castle / Сезон: 3 / Серии: 1-10 из 10 [2018 WEBRip 2160p] [Ukr MVO] killermax2013 Скачать
1 | 0
Зарубежные сериалы [ 25 GB ] Человек в высоком замке / The Man in the High Castle / Сезон: 3 / Серии: 1-10 из 10 [2018 WEB-DL 1080p] MVO [Lostfilm] bober100 Скачать
1 | 0
Зарубежные сериалы [ 6.21 GB ] Человек в высоком замке / The Man in the High Castle / Сезон: 3 / Серии: 1-10 из 10 [2018 WEB-DLRip] [MVO] killermax2013 Скачать
1 | 0
Зарубежные сериалы [ 22.98 GB ] Человек в высоком замке / The Man in the High Castle / Сезон: 3 / Серии: 1-10 из 10 [2018 WEB-DL 1080p] [MVO] killermax2013 Скачать
1 | 0
Зарубежные сериалы [ 87.67 GB ] Человек в высоком замке / The Man in the High Castle / Сезон: 3 / Серии: 1-10 из 10 [2018 UHD WEBRip 2160p] 2xMVO [NewStudio Baibako] bober100 Скачать
1 | 0

28-11-2019 20:33  

Отключить всю рекламу на сайте

    Дорогой пользователь! Огромная просьба, поблагодарите релизера, оцените раздачу и оставьте свои комментарий, если Вы скачали Человек в высоком замке через торрент бесплатно! Внесите свою лепту в развитие PiratBit!
    Комментировать посты могут только пользователи прошедшие не сложную регистрацию
    Показать сообщения:    

    Человек в высоком замке через торрент
    Скачать бесплатно Человек в высоком замке
    Человек в высоком замке скачать торрент
    Человек в высоком замке смотреть онлайн
    Cкачать фильм Человек в высоком замке бесплатно
    Человек в высоком замке скачать торрент в хорошем качестве
    Человек в высоком замке смотреть онлайн бесплатно в хорошем качестве


    Вы не можете начинать темы
    Вы не можете отвечать на сообщения
    Вы не можете редактировать свои сообщения
    Вы не можете удалять свои сообщения
    Вы не можете голосовать в опросах
    Вы не можете прикреплять файлы к сообщениям
    Вы можете скачивать файлы