Ссылка на приватное зеркало всего за 1$. Внимание количество ограничено!!!

iTunes

iTunes

iTunes

1

iTunes

iTunes

iTunes

WEBRip

iTunes

30
pack

$ от Little Big

ВАЖНО

!!Акция!!

Alien_RageХит недели

RePack

Resident Evil 21

ИГРА 18+

pack

RePack

jed

!!Акция!!

Alien_Rage

RePack

fifa19

RePack

Assassins Creed: Odyssey

RePack

NEED FOR SPEED™ PAYBACK

4 сезон

9 сезон

Бесстыжие 9 сезон

Все сериалы

все сериалы на PB.wtf

RePack

FAR CRY 5
  

Пустошь / Desolation (Сэм Паттон) [2017, ужасы, триллер, драма, WEB-DL 720p] MVO ["Синема УС"] pb.wtf

Пустошь через торрент pb.wtf

Размер: 2.67 GB | Добавлен: 1 год 10 мес. назад | Торрент скачан:34 раза
Скачать  

09-10-2018 06:25 Пустошь Скачать торрент  

Пустошь / DesolationГод выпуска: 2017
Страна: США
Жанр: ужасы, триллер, драма
Продолжительность: 01:18:56
Перевод: Любительский (многоголосый) | "Синема УС"
Субтитры: отсутствуют

Режиссер: Сэм Паттон

rating

В ролях:

Тоби Николс, Джейми Пейдж, Алишия Окс, Клод Дюамель

Описание:

Женщина берёт сына и лучшую подругу в поход, чтобы развеять прах почившего мужа. В пути их начнёт преследовать одинокий турист.

Качество: WEB-DL 720p
Формат: MKV

Видео: h.264, 4 451 kb/s, 1280x720
Аудио#1: Русский (AC3, 2 ch, 384 Кбит/с)
скриншот  скриншот  скриншот  

Общее
Уникальный идентификатор : 226731895546492452436288852939337181552 (0xAA92F985D000B6DA96A0B3C9EE552970)
Полное имя : D:\Desolation.2O17.P.WEB-DL.72Op_KOSHARA.mkv
Формат : Matroska
Версия формата : Version 2
Размер файла : 2,67 Гбайт
Продолжительность : 1 ч. 18 м.
Режим общего битрейта : Переменный
Общий поток : 4837 Кбит/сек
Дата кодирования : UTC 2018-10-08 08:18:58
Программа кодирования : mkvmerge v8.3.0 ('Over the Horizon') 64bit
Библиотека кодирования : libebml v1.3.1 + libmatroska v1.4.2

Видео
Идентификатор : 1
Формат : AVC
Формат/Информация : Advanced Video Codec
Профиль формата : High@L4.1
Параметр CABAC формата : Да
Параметр RefFrames формата : 4 кадра
Идентификатор кодека : V_MPEG4/ISO/AVC
Продолжительность : 1 ч. 18 м.
Вид битрейта : Переменный
Битрейт : 4451 Кбит/сек
Максимальный битрейт : 5000 Кбит/сек
Ширина : 1280 пикселей
Высота : 720 пикселей
Соотношение сторон : 16:9
Режим частоты кадров : Постоянный
Частота кадров : 23,976 (24000/1001) кадра/сек
Стандарт вещания : Component
Цветовое пространство : YUV
Субдискретизация насыщенности : 4:2:0
Битовая глубина : 8 бит
Тип развёртки : Прогрессивная
Бит/(Пиксели*Кадры) : 0.197
Размер потока : 2,40 Гбайт (90%)
Default : Да
Forced : Нет
Цветовой диапазон : Limited
Основные цвета : BT.709
Характеристики трансфера : BT.709
Коэффициенты матрицы : BT.709

Аудио
Идентификатор : 2
Формат : AC-3
Формат/Информация : Audio Coding 3
Расширение режима : CM (complete main)
Параметр Endianness формата : Big
Идентификатор кодека : A_AC3
Продолжительность : 1 ч. 18 м.
Вид битрейта : Постоянный
Битрейт : 384 Кбит/сек
Каналы : 2 канала
Расположение каналов : Front: L R
Частота : 48,0 КГц
Частота кадров : 31,250 кадров/сек (1536 spf)
Метод сжатия : С потерями
Размер потока : 217 Мбайт (8%)
Default : Да
Forced : Нет

pb.wtf



Скачать Пустошь через торрент https://b.radikal.ru/b29/1810/67/720eccd33566.jpg Скачать фильм Пустошь через торрент бесплантно в хорошем качестве Описание: Женщина берёт сына и лучшую подругу в поход, чтобы развеять прах почившего мужа. В пути их начнёт преследовать одинокий ... 8.2 10 5
Торрент: Зарегистрирован [2018-10-09 06:25] · скачан: 34 раз
Статус: T временная
Размер: 2.67 GB
Как cкачать? Как скачать Пустошь через торрент | qTorrent

% Раздел Тема Автор DL S | L
Фильмы (HD 720p, 1080p) (48-60 fps) [ 8.4 GB ] Хоббит: Пустошь Смауга / The Hobbit: The Desolation of Smaug [2013 BDRip 720p / 60 FPS Ворон Скачать
1 | 0
T Фильмы (мультфильмы) cо спонсором показа (Новинки AVI/MKV) [ 1.37 GB ] Пустошь / Desolation [2017 WEB-DLRip] MVO ["Синема УС"] bober100 Скачать
1 | 0
Фильмы (Blu-ray, BD-Remux, HDDVD) [ 40.43 GB ] Хоббит: Пустошь Смауга / The Hobbit: The Desolation of Smaug [2013 Новая Зеландия Blu-ray CEE 1080p] [Extended Edition] Dub + Sub Rus Eng + Original Eng voovaz Скачать
1 | 0
Фильмы [HD 720p, 1080p] (Хороший звук DUB, MVO) [ 10 GB ] Хоббит: Пустошь Смауга / The Hobbit: The Desolation of Smaug [2013 BDRip 720p] DUB+2xAVO _denis_100 Скачать
1 | 0
3D Фильмы [ 17.42 GB ] Хоббит: Пустошь Смауга / The Hobbit: The Desolation of Smaug [2013 BDrip 1080p] OverUnder / Вертикальная стереопара serega768 Скачать
1 | 0
Фильмы [HD 720p, 1080p] (Хороший звук DUB, MVO) [ 13.62 GB ] Хоббит: Пустошь Смауга / The Hobbit: The Desolation of Smaug [2013 BDRip 1080p DUB / EXTENDED - Расширенная режиссерская версия] Ворон Скачать
3 | 0
Фильмы (Blu-ray, BD-Remux, HDDVD) [ 64.79 GB ] Хоббит: Пустошь Смауга / The Hobbit: The Desolation of Smaug [Extrended Edition] [2013 Blu-Ray 3D] [] + Original + Sub Messa-fan Скачать
1 | 0

28-11-2019 20:33  

Отключить всю рекламу на сайте

09-10-2018 14:49 Пустошь Скачать торрент  

Забираю автору спс. комент позжеpb.wtf



10-10-2018 04:03 Пустошь Скачать торрент  

Ну что глянул я фильм на разок посмотреть можно оценка 3 из 5.pb.wtf



    Дорогой пользователь! Огромная просьба, поблагодарите релизера, оцените раздачу и оставьте свои комментарий, если Вы скачали Пустошь через торрент бесплатно! Внесите свою лепту в развитие PiratBit!
    Комментировать посты могут только пользователи прошедшие не сложную регистрацию
    Показать сообщения:    

    Пустошь через торрент
    Скачать бесплатно Пустошь
    Пустошь скачать торрент
    Пустошь смотреть онлайн
    Cкачать фильм Пустошь бесплатно
    Пустошь скачать торрент в хорошем качестве
    Пустошь смотреть онлайн бесплатно в хорошем качестве


    Вы не можете начинать темы
    Вы не можете отвечать на сообщения
    Вы не можете редактировать свои сообщения
    Вы не можете удалять свои сообщения
    Вы не можете голосовать в опросах
    Вы не можете прикреплять файлы к сообщениям
    Вы можете скачивать файлы