Ссылка на приватное зеркало нашего сайта всего за 1$. Внимание количество ограничено!!!

2 сезон

iTunes

1 сезон

1

2 сезон

2 сезон

iTunes

1 сезон

RePack

30

Новинка

ВАЖНО

ИГРА 18+

pack

RePack

MK11
pack

Забери бонус

RePack

jed

!!Акция!!

Alien_Rage

RePack

fifa19

RePack

Assassins Creed: Odyssey

RePack

NEED FOR SPEED™ PAYBACK

4 сезон

9 сезон

Бесстыжие 9 сезон

Все сериалы

все сериалы на PB.wtf

RePack

FAR CRY 5
  

Шучу / Kidding / Сезон: 1 / Серии: 1-10 из 10 (Колин Бакси, Адам Бернштейн, Винс Гиллиган) [2018, драма, комедия, WEB-DL 720p] [DVO] (Кубик в Кубе) pb.wtf

Шучу через торрент pb.wtf

Размер: 13.6 GB | Добавлен: 1 год 3 мес. назад | Торрент скачан:87 раз
Скачать  

09-10-2018 10:57 Шучу Скачать торрент  

ШучуKidding
Год выпуска: 2018
Страна: США, Aggregate Films
Жанр: драма, комедия
Продолжительность: 00:29:00
Перевод: Профессиональный (двухголосый закадровый)*Кубик в Кубе*
Субтитры: English

Режиссер: Колин Бакси / Colin Bucksey, Адам Бернштейн / Adam Bernstein, Винс Гиллиган / Vince Gilligan

В ролях: Джим Керри, Фрэнк Ланджелла, Кэтрин Кинер, Джуди Грир, Бернард Уайт, Мэри Фабер, Мэри Фабер, Гвен Холландер, Эндрю Т. Ли, Бэрри Ротбарт


Джефф — настоящая звезда детских передач, он весел и жизнерадостен, а главное — он способен развеселить любого. Но сказка не может длиться вечно. Его брак трещит по швам, семейная жизнь летит под откос. Как тут улыбаться?
rating

Релиз -- CasStudio
Работа со звуком: Messafan

Качество: WEB-DL 720p
Контейнер: MKV
Видео: 1280x720 at 23.976 fps, MPEG-4 AVC, ~2600 kbps avg
Аудио 1: 48 kHz, AC3, 3/2 (L,C,R,l,r) + LFE ch, ~384.00 kbps avg |Двухголосый закадровый, Кубик в Кубе|
Аудио 2: English: 48 kHz, AC3, 3/2 (L,C,R,l,r) + LFE ch, ~384.00 kbps avg
General
Unique ID : 253638210014949143725100743920955717135 (0xBED0F13F376B1C849D00567F646C760F)
Complete name : E:\Kidding.S01.720p.WEB.CasStudio.TV\Kidding.S01E02.Pusilanimous.720p.WEB-DL.KvK.CasStudio.TV.mkv
Format : Matroska
Format version : Version 4 / Version 2
File size : 693 MiB
Duration : 29 min 42 s
Overall bit rate : 3 260 kb/s
Movie name : Kidding 01x02 (Pusilanimous) - release by messafan for CasStudio.TV
Encoded date : UTC 2018-09-16 08:25:15
Writing application : mkvmerge v6.7.0 ('Back to the Ground') 64bit built on Jan 8 2014 15:10:52
Writing library : libebml v1.3.0 + libmatroska v1.4.1

Video
ID : 1
Format : AVC
Format/Info : Advanced Video Codec
Format profile : High@L3.1
Format settings : CABAC / 5 Ref Frames
Format settings, CABAC : Yes
Format settings, RefFrames : 5 frames
Codec ID : V_MPEG4/ISO/AVC
Duration : 29 min 42 s
Bit rate : 2 427 kb/s
Width : 1 280 pixels
Height : 720 pixels
Display aspect ratio : 16:9
Frame rate mode : Constant
Frame rate : 23.976 (24000/1001) FPS
Color space : YUV
Chroma subsampling : 4:2:0
Bit depth : 8 bits
Scan type : Progressive
Bits/(Pixel*Frame) : 0.110
Stream size : 516 MiB (74%)
Language : English
Default : Yes
Forced : No
Color range : Limited
Color primaries : BT.709
Transfer characteristics : BT.709
Matrix coefficients : BT.709

Audio #1
ID : 2
Format : AC-3
Format/Info : Audio Coding 3
Format settings, Endianness : Big
Codec ID : A_AC3
Duration : 29 min 42 s
Bit rate mode : Constant
Bit rate : 384 kb/s
Channel(s) : 6 channels
Channel positions : Front: L C R, Side: L R, LFE
Sampling rate : 48.0 kHz
Frame rate : 31.250 FPS (1536 SPF)
Bit depth : 16 bits
Compression mode : Lossy
Stream size : 81.6 MiB (12%)
Title : KvK 5.1
Language : Russian
Service kind : Complete Main
Default : Yes
Forced : No

Audio #2
ID : 3
Format : AC-3
Format/Info : Audio Coding 3
Format settings, Endianness : Big
Codec ID : A_AC3
Duration : 29 min 42 s
Bit rate mode : Constant
Bit rate : 384 kb/s
Channel(s) : 6 channels
Channel positions : Front: L C R, Side: L R, LFE
Sampling rate : 48.0 kHz
Frame rate : 31.250 FPS (1536 SPF)
Bit depth : 16 bits
Compression mode : Lossy
Stream size : 81.6 MiB (12%)
Title : English 5.1
Language : English
Service kind : Complete Main
Default : No
Forced : No

Text
ID : 4
Format : UTF-8
Codec ID : S_TEXT/UTF8
Codec ID/Info : UTF-8 Plain Text
Title : SDH
Language : English
Default : No
Forced : No

скриншот  скриншот  скриншот  
pb.wtf



Скачать Шучу через торрент https://b.radikal.ru/b26/1810/9c/f7b1bf1fdc50.png Скачать фильм Шучу через торрент бесплантно в хорошем качестве В ролях: Джим Керри, Фрэнк Ланджелла, Кэтрин Кинер, Джуди Грир, Бернард Уайт, Мэри Фабер, Мэри Фабер, Гвен Холландер, Эндрю Т. Ли, Бэрри ... 10 10 6
Торрент: Зарегистрирован [2019-07-27 19:50] · скачан: 87 раз
Статус: √ проверено
Размер: 13.6 GB
Как cкачать? Как скачать Шучу через торрент | qTorrent

% Раздел Тема Автор DL S | L
Зарубежные сериалы [ 4.06 GB ] Шучу / Kidding / Сезон: 2 / Серии: 1-10 из 10 [2020 WEB-DLRip] MVO [DoubleRec / Amedia] bober100 Скачать
1 | 0
Зарубежные сериалы [ 20.13 GB ] Шучу / Kidding / Сезон: 2 / Серии: 1-10 из 10 [2020 WEB-DL 1080p] MVO [DoubleRec / Amedia] bober100 Скачать
1 | 0
Зарубежные сериалы [ 4.06 GB ] Шучу / Kidding / Сезон: 2 / Серии: 1-10 из 10 [2020 WEB-DLRip] MVO [LostFilm] bober100 Скачать
1 | 0
Зарубежные сериалы [ 9.3 GB ] Шучу / Kidding / Сезон: 2 / Серии: 1-10 из 10 [2020 WEBRip 720p] [MVO] killermax2013 Скачать
1 | 0
Зарубежные сериалы [ 18.37 GB ] Шучу / Kidding / Сезон: 2 / Серии: 1-10 из 10 [2020 WEBRip 1080p] [MVO] killermax2013 Скачать
1 | 0
Зарубежные сериалы [ 20.7 GB ] Шучу / Kidding / Сезон: 2 / Серии: 1-10 из 10 [2020 WEB-DL 1080p] MVO [NewStudio] bober100 Скачать
1 | 0
Зарубежные сериалы [ 10.78 GB ] Шучу / Kidding / Сезон: 2 / Серии: 1-10 из 10 [2020 WEB-DL 720p] MVO [NewStudio] bober100 Скачать
1 | 0

28-11-2019 20:33  

Отключить всю рекламу на сайте

    Дорогой пользователь! Огромная просьба, поблагодарите релизера, оцените раздачу и оставьте свои комментарий, если Вы скачали Шучу через торрент бесплатно! Внесите свою лепту в развитие PiratBit!
    Комментировать посты могут только пользователи прошедшие не сложную регистрацию
    Показать сообщения:    

    Шучу через торрент
    Скачать бесплатно Шучу
    Шучу скачать торрент
    Шучу смотреть онлайн
    Cкачать фильм Шучу бесплатно
    Шучу скачать торрент в хорошем качестве
    Шучу смотреть онлайн бесплатно в хорошем качестве


    Вы не можете начинать темы
    Вы не можете отвечать на сообщения
    Вы не можете редактировать свои сообщения
    Вы не можете удалять свои сообщения
    Вы не можете голосовать в опросах
    Вы не можете прикреплять файлы к сообщениям
    Вы можете скачивать файлы