Ссылка на приватное зеркало всего за 1$. Внимание количество ограничено!!!

iTunes

iTunes

iTunes

1

iTunes

iTunes

iTunes

WEBRip

iTunes

30
pack

$ от Little Big

ВАЖНО

!!Акция!!

Alien_RageХит недели

RePack

Resident Evil 21

ИГРА 18+

pack

RePack

jed

!!Акция!!

Alien_Rage

RePack

fifa19

RePack

Assassins Creed: Odyssey

RePack

NEED FOR SPEED™ PAYBACK

4 сезон

9 сезон

Бесстыжие 9 сезон

Все сериалы

все сериалы на PB.wtf

RePack

FAR CRY 5
  

Загадочная гаражная распродажа. Убийства ящика Пандоры / Garage Sale Mystery: Pandora's Box (Нилл Фернли) [2018, драма, криминал, детектив, HDTVRip 720p] MVO ["Синема УС"] pb.wtf

Загадочная гаражная распродажа. Убийства ящика Пандоры через торрент pb.wtf

Размер: 2.96 GB | Добавлен: 1 год 10 мес. назад | Торрент скачан:94 раза
Скачать  

09-10-2018 11:46 Загадочная гаражная распродажа. Убийства ящика Пандоры Скачать торрент  

Загадочная гаражная распродажа. Убийства ящика Пандоры / Garage Sale Mystery: Pandora's Box Год выпуска: 2018
Страна: Канада
Жанр: драма, криминал, детектив
Продолжительность: 01:26:01
Перевод: Любительский (многоголосый) | "Синема УС"
Субтитры: отсутствуют

Режиссер: Нилл Фернли

rating

В ролях:

Лори Лафлин, Сара Стрэйндж, Стив Бачич, Эва Борн, Коннор Стэнхоуп, Кевин О'Грэйди, Джей Бразо, Локлин Манро, Джоанна Ньюмарк, Кори Ремпел

Описание:

Невестка известной состоятельной семьи заручилась поддержкой Дженнифер с разгадкой загадочной шкатулки-головоломки, которую ее теща оставила после своей смерти.

Качество: HDTVRip 720p
Формат: MKV

Видео: 4545 kb/s, 1280x720
Аудио#1: Русский, (AC3, 2 ch, 384 Кбит/с)
скриншот  скриншот  скриншот  

Общее
Уникальный идентификатор : 234581595940616549388306653283307446550 (0xB07AC5A1F352070D9543FA5D7D6F6116)
Полное имя : D:\garage.sale.mysteries.the.pandoras.box.murders.2018.P.HDTV.72Op_KOSHARA.mkv
Формат : Matroska
Версия формата : Version 2
Размер файла : 2,96 Гбайт
Продолжительность : 1 ч. 26 м.
Режим общего битрейта : Переменный
Общий поток : 4931 Кбит/сек
Дата кодирования : UTC 2018-10-07 07:51:18
Программа кодирования : mkvmerge v8.3.0 ('Over the Horizon') 64bit
Библиотека кодирования : libebml v1.3.1 + libmatroska v1.4.2

Видео
Идентификатор : 1
Формат : AVC
Формат/Информация : Advanced Video Codec
Профиль формата : High@L4.1
Параметр CABAC формата : Да
Параметр RefFrames формата : 4 кадра
Идентификатор кодека : V_MPEG4/ISO/AVC
Продолжительность : 1 ч. 26 м.
Вид битрейта : Переменный
Битрейт : 4545 Кбит/сек
Максимальный битрейт : 5000 Кбит/сек
Ширина : 1280 пикселей
Высота : 720 пикселей
Соотношение сторон : 16:9
Режим частоты кадров : Постоянный
Частота кадров : 23,976 (24000/1001) кадра/сек
Стандарт вещания : Component
Цветовое пространство : YUV
Субдискретизация насыщенности : 4:2:0
Битовая глубина : 8 бит
Тип развёртки : Прогрессивная
Бит/(Пиксели*Кадры) : 0.201
Размер потока : 2,67 Гбайт (90%)
Default : Да
Forced : Нет
Цветовой диапазон : Limited
Основные цвета : BT.709
Характеристики трансфера : BT.709
Коэффициенты матрицы : BT.709

Аудио
Идентификатор : 2
Формат : AC-3
Формат/Информация : Audio Coding 3
Расширение режима : CM (complete main)
Параметр Endianness формата : Big
Идентификатор кодека : A_AC3
Продолжительность : 1 ч. 26 м.
Вид битрейта : Постоянный
Битрейт : 384 Кбит/сек
Каналы : 2 канала
Расположение каналов : Front: L R
Частота : 48,0 КГц
Частота кадров : 31,250 кадров/сек (1536 spf)
Метод сжатия : С потерями
Размер потока : 236 Мбайт (8%)
Default : Да
Forced : Нет

pb.wtf



Скачать Загадочная гаражная распродажа. Убийства ящика Пандоры через торрент http://img10.lostpic.net/2018/10/09/ccdfa06b8235a5e3fe158a47c6fac065.jpg Скачать фильм Загадочная гаражная распродажа. Убийства ящика Пандоры через торрент бесплантно в хорошем качестве Описание: Невестка известной состоятельной семьи заручилась поддержкой Дженнифер с разгадкой загадочной шкатулки-головоломки, которую ее ... 10 10 4
Торрент: Зарегистрирован [2018-10-09 11:46] · скачан: 94 раз
Статус: T временная
Размер: 2.96 GB
Как cкачать? Как скачать Загадочная гаражная распродажа. Убийства ящика Пандоры через торрент | qTorrent

28-11-2019 20:33  

Отключить всю рекламу на сайте

    Дорогой пользователь! Огромная просьба, поблагодарите релизера, оцените раздачу и оставьте свои комментарий, если Вы скачали Загадочная гаражная распродажа. Убийства ящика Пандоры через торрент бесплатно! Внесите свою лепту в развитие PiratBit!
    Комментировать посты могут только пользователи прошедшие не сложную регистрацию
    Показать сообщения:    

    Загадочная гаражная распродажа. Убийства ящика Пандоры через торрент
    Скачать бесплатно Загадочная гаражная распродажа. Убийства ящика Пандоры
    Загадочная гаражная распродажа. Убийства ящика Пандоры скачать торрент
    Загадочная гаражная распродажа. Убийства ящика Пандоры смотреть онлайн
    Cкачать фильм Загадочная гаражная распродажа. Убийства ящика Пандоры бесплатно
    Загадочная гаражная распродажа. Убийства ящика Пандоры скачать торрент в хорошем качестве
    Загадочная гаражная распродажа. Убийства ящика Пандоры смотреть онлайн бесплатно в хорошем качестве


    Вы не можете начинать темы
    Вы не можете отвечать на сообщения
    Вы не можете редактировать свои сообщения
    Вы не можете удалять свои сообщения
    Вы не можете голосовать в опросах
    Вы не можете прикреплять файлы к сообщениям
    Вы можете скачивать файлы