Лицензия

MVO

1

1 сезон

Лицензия

Лицензия

13

MVO

1 сезон

Deluxe Edition

pack

Рекомендуем

30

Repack

ВАЖНО

ВАЖНО

Ghostwire

RePack

jed

RePack

fifa19

RePack

RDR2

RePack

NEED FOR SPEED™ PAYBACK

RePack

Кинопоиск HD

 Острые козырьки 6 сезон

6 сезон

FAR CRY 6

RePack

Лицензия

MVO

1

1 сезон

1 сезон

Лицензия

  

Все возрасты любви / Серии: 1-8 из 8 (Александр Муратов) [2016, Комедия, мелодрама, WEB-DLRip]

Все возрасты любви через торрент pb.wtf

Размер: 5.11 GB | Добавлен: 3 года 11 мес. назад | Торрент скачан:27 раз
Смотреть онлайн Все возрасты любви | Скачать   

09-10-2018 16:36 Все возрасты любви Скачать торрент  

Все возрасты любвиГод выпуска: 2016
Страна: Россия
Жанр: Комедия, мелодрама
Продолжительность: ~ 00:51:00
Субтитры: отсутствуют

Режиссер: Александр Муратов



В ролях:

Екатерина Гусева, Филипп Бледный, Ирина Уханова, Евгения Добровольская, Татьяна Абрамова, Владимир Ерёмин, Анатолий Кот, Олег Масленников-Войтов, Николай Наумов (II), Александр Чевычелов, Елена Радевич, Тамара Миронова, Инна Коляда

Описание:

У каждого из трех главных героев фильма за плечами не очень удачная личная жизнь. И вот словно Судьба предоставила им другую попытку. Разведенный топ-менеджер Маковцов решил жениться на молоденькой няне своей 14-летней дочери Вики, не подозревая, что у няни есть свой бойфренд и некоторые планы относительно имущества топ-менеджера. Бывшая жена Маковцова Катя в свои 37 лет фактически поставила на себе крест как на женщине, что не помешало ей как следует влюбиться в 25-летнего Игоря и выдержать по этому поводу бесконечный негатив от близких и не только близких людей. Что же касается Игоря, то его попытка отделаться от надоевших отношений с ровесницей Инной заканчиваются пулевым ранением и больницей. Немалую роль во всем происходящем играют продвинутый тинейджер Вика, с подростковой непосредственностью вмешиваясь в дела взрослых, а также разведенные мать и отец Игоря, у которых и своих проблем в личной жизни навалом.

Качество: WEB-DLRip
Формат: AVI

Видео: XviD, ~ 1650 Кбит/с, 720x400
Аудио: AC3, 2 ch, 192 Кбит/с
скриншот  скриншот  скриншот  скриншот  

Общее
Полное имя : D:\Vse.vozrasty.lyubvi.WEB-DLRip.25Kuzmich\Vse.vozrasty.lyubvi.e01.WEB-DLRip.25Kuzmich.avi
Формат : AVI
Формат/Информация : Audio Video Interleave
Размер файла : 651 Мбайт
Продолжительность : 49 м. 8 с.
Общий поток : 1852 Кбит/сек
Программа кодирования : VirtualDubMod 1.5.10.3 | www.virtualdub-fr.org || (build 2550/release)
Библиотека кодирования : VirtualDubMod build 2550/release

Видео
Идентификатор : 0
Формат : MPEG-4 Visual
Профиль формата : Advanced [email protected]
Параметр BVOP формата : 1
Параметр QPel формата : Нет
Параметр GMC формата : Без точки перехода
Параметр матрицы формата : Default (MPEG)
Идентификатор кодека : XVID
Идентификатор кодека/Подсказка : XviD
Продолжительность : 49 м. 8 с.
Битрейт : 1650 Кбит/сек
Ширина : 720 пикселей
Высота : 400 пикселей
Соотношение сторон : 16:9
Частота кадров : 25,000 кадров/сек
Цветовое пространство : YUV
Субдискретизация насыщенности : 4:2:0
Битовая глубина : 8 бит
Тип развёртки : Прогрессивная
Метод сжатия : С потерями
Бит/(Пиксели*Кадры) : 0.229
Размер потока : 580 Мбайт (89%)
Библиотека кодирования : XviD 1.2.1 (UTC 2008-12-04)

Аудио
Идентификатор : 1
Формат : AC-3
Формат/Информация : Audio Coding 3
Расширение режима : CM (complete main)
Параметр Endianness формата : Big
Идентификатор кодека : 2000
Продолжительность : 49 м. 8 с.
Вид битрейта : Постоянный
Битрейт : 192 Кбит/сек
Каналы : 2 канала
Расположение каналов : Front: L R
Частота : 48,0 КГц
Частота кадров : 31,250 кадров/сек (1536 spf)
Метод сжатия : С потерями
Размер потока : 67,5 Мбайт (10%)
Выравнивание : Разделение по промежуткам
Продолжительность промежутка : 40 мс. (1,00 видеокадр)
Время предзагрузки промежутка : 500 мс.




Скачать Все возрасты любви через торрент http://i91.fastpic.ru/big/2018/1009/e8/f7b5cd35edb697a3a541b0f33146eae8.jpg Скачать, смотреть онлайн Все возрасты любви бесплантно в хорошем качестве Описание: У каждого из трех главных героев фильма за плечами не очень удачная личная жизнь. И вот словно Судьба предоставила им другую ... 10 10 3
Торрент: Зарегистрирован [2018-10-09 16:36] · скачан: 27 раз
Статус: √ проверено
Размер: 5.11 GB
Как cкачать? Как скачать Все возрасты любви через торрент | UTorrent

% Раздел Тема Автор DL S | L
Наши сериалы [ 9.01 GB ] Все возрасты любви / Серии: 1-8 из 8 | | 720p bober100 Скачать
1 | 0
Наши сериалы [ 4.99 GB ] Все возрасты любви / Серии: 1-8 из 8 | | DLRip-AVC bober100 Скачать
1 | 0

28-11-2019 20:33  

Отключить вcю реклaмy на сайте

    Дорогой пользователь! Огромная просьба, поблагодарите релизера, оцените раздачу и оставьте свои комментарий, если Вы скачали Все возрасты любви через торрент бесплатно!!
    Комментировать посты могут только пользователи прошедшие не сложную регистрацию
    Показать сообщения:    


    Все возрасты любви через торрент
    Скачать бесплатно Все возрасты любви
    Все возрасты любви скачать торрент
    Все возрасты любви смотреть онлайн
    Cкачать фильм Все возрасты любви бесплатно
    Все возрасты любви скачать торрент в хорошем качестве
    Все возрасты любви смотреть онлайн бесплатно в хорошем качестве
    Вы не можете начинать темы
    Вы не можете отвечать на сообщения
    Вы не можете редактировать свои сообщения
    Вы не можете удалять свои сообщения
    Вы не можете голосовать в опросах
    Вы не можете прикреплять файлы к сообщениям
    Вы можете скачивать файлы