Ссылка на приватное зеркало всего за 1$. Внимание количество ограничено!!!

OK

1+1

iTunes

мы

OK

1

WEB-DLRip

Джокер

Пифагор

Ведьмак / The Witcher сериал

Лицензия

ПШазам

ОК

Оно 2

iTunes

30
pack

Вам бонус

ВАЖНО

!!Акция!!

Alien_RageХит недели

RePack

Resident Evil 21

ИГРА 18+

pack

RePack

jed

!!Акция!!

Alien_Rage

RePack

fifa19

RePack

Assassins Creed: Odyssey

RePack

NEED FOR SPEED™ PAYBACK

4 сезон

9 сезон

Бесстыжие 9 сезон

Все сериалы

все сериалы на PB.wtf

RePack

FAR CRY 5
  

Аризона / Arizona (Джонатан Уотсон) [2018 г., Триллер, комедия, криминал, BDRip 1080p, Профессиональный (многоголосый) HDRezka Studio] pb.wtf

Аризона через торрент pb.wtf

Раздают: 1 [ 0 KB/s ]
Размер: 6.67 GB | Добавлен: 1 год 3 мес. назад | Торрент скачан:122 раза
Скачать  

09-10-2018 17:08 Аризона Скачать торрент  

Аризона / Arizona
Год выпуска: 2018
Страна: США
Жанр: Триллер, комедия, криминал
Продолжительность: 01:23:37
Перевод: Профессиональный (многоголосый) (HDRezka Studio) +Оригинал
Субтитры: английские

Режиссер: Джонатан Уотсон

В ролях: Элизабет Гиллис, Дэнни МакБрайд, Кэйтлин Олсон, Розмари ДеУитт, Люк Уилсон, Дэвид Алан Грир, Трэвис Хаммер, Каллен Мосс, Джейд Каммерман, Одри Уолтерс

Описание: Кесси, агент по продаже недвижимости и мать-одиночка, пытается справиться с жилищным кризисом 2009 года. Ситуация только ухудшается, когда в ее жизнь врывается недовольный клиент Сонни, чьи действия приносят только разрушение и смерть.

Качество: BDRip (1080p)
Формат: MKV
Видео кодек: AVC
Аудио кодек: AC3-DTS
Видео: MPEG-4 AVC, (1920x808),9717 Кбит/с, 23.976 кадра/сек
Аудио#1: AC3, 2 ch,192 kbps (Rus) 48.0 KHz Профессиональный (многоголосый, закадровый) (HDRezka Studio)
Аудио#2: DTS,6 ch, 1510 kbps (Eng) 48.0 KHz Оригинал
скриншот   скриншот   скриншот  

Тип потока: Видео
Длительность: 01:23:37
Кодек: AVC
Кодек/описание: Advanced Video Codec
Кодек/профиль: High@L4.1
Кодек/ID: V_MPEG4/ISO/AVC
Кодек/CABAC: Yes
Кодек/ReFrames: 5 frames
Размеры изображения: 1920 x 808 (2.40:1)
Частота кадров: 23.976 fps
Частота кадров/тип: Constant
Размер потока: 5.54 GiB (83%)
Битрейт: 9 717 Kbps
Библиотека кодирования: x264 core 157 r2932 303c484
Цветовое пространство: YUV
Тип развёртки: Progressive
Колориметрия: 4:2:0
Глубина: 8 bits
:
Тип потока: Звук #1
Язык: Russian
Название: MVO | HDRezka Studio
Длительность: 01:23:37.763
Кодек: AC-3
Кодек/описание: Audio Coding 3
Кодек/ID: A_AC3
Частота дискретизации: 48.0 KHz
Каналов: 2 channels
Битрейт: 192 Kbps
Битрейт/тип: Constant
Размер потока: 115 MiB (2%)
Глубина: 16 bits
Метод сжатия: Lossy
:
Тип потока: Звук #2
Язык: English
Длительность: 01:23:37.763
Кодек: DTS
Кодек/описание: Digital Theater Systems
Кодек/ID: A_DTS
Частота дискретизации: 48.0 KHz
Каналов: 6 channels
Битрейт: 1 509 Kbps
Битрейт/тип: Constant
Размер потока: 903 MiB (13%)
Глубина: 24 bits
Метод сжатия: Lossy
:
Тип потока: Субтитры #1
Язык: English
Формат: UTF-8
Формат/подробно: UTF-8 Plain Text

pb.wtf



Скачать Аризона через торрент http://pic1.kartinco.top/images/11/ikx4d.jpg Скачать фильм Аризона через торрент бесплантно в хорошем качестве Описание: Кесси, агент по продаже недвижимости и мать-одиночка, пытается справиться с жилищным кризисом 2009 года. Ситуация только ... 10 10 7
Торрент: Зарегистрирован [2018-10-09 17:08] · скачан: 122 раз
Статус: T временная
Размер: 6.67 GB
Как cкачать? Как скачать Аризона через торрент | qTorrent

% Раздел Тема Автор DL S | L
T Ultra HD (UHD: 2K, 4K, 8K) — видео сверхвысокой чёткости [ 20.38 GB ] Аризона / Arizona [2018 UHD BDRip 2160p] [SDR] MVO [HDRezka Studio] bober100 Скачать
1 | 0
T Ultra HD (UHD: 2K, 4K, 8K) — видео сверхвысокой чёткости [ 12.38 GB ] Аризона / Arizona [2018 UHD BDRip 2160p] MVO [HDRezka Studio] sheker187 Скачать
1 | 0
T Ultra HD (UHD: 2K, 4K, 8K) — видео сверхвысокой чёткости [ 32.26 GB ] Аризона / Arizona [2018 UHD BDRemux 2160p] MVO [HDRezka Studio] bober100 Скачать
1 | 0
T Фильмы 2018 [DVDrip, WEB-DLRip, HDrip] (DUB, MVO) [ 1.46 GB ] Аризона / Arizona [2018 WEB-DLRip-AVC] MVO [HDRezka Studio] bober100 Скачать
1 | 0
T Фильмы (WEB-DL 720p, 1080p) [ 3.05 GB ] Аризона / Arizona [2018 WEB-DL 1080p] MVO [HDRezka Studio] bober100 Скачать
1 | 0

28-11-2019 20:33  

Отключить всю рекламу на сайте

    Дорогой пользователь! Огромная просьба, поблагодарите релизера, оцените раздачу и оставьте свои комментарий, если Вы скачали Аризона через торрент бесплатно! Внесите свою лепту в развитие PiratBit!
    Комментировать посты могут только пользователи прошедшие не сложную регистрацию
    Показать сообщения:    

    Аризона через торрент
    Скачать бесплатно Аризона
    Аризона скачать торрент
    Аризона смотреть онлайн
    Cкачать фильм Аризона бесплатно
    Аризона скачать торрент в хорошем качестве
    Аризона смотреть онлайн бесплатно в хорошем качестве


    Вы не можете начинать темы
    Вы не можете отвечать на сообщения
    Вы не можете редактировать свои сообщения
    Вы не можете удалять свои сообщения
    Вы не можете голосовать в опросах
    Вы не можете прикреплять файлы к сообщениям
    Вы можете скачивать файлы