MEGA SALE -50% FORZA HORIZON 4 ULTIMATE+ВСЕ DLC+ОНЛАЙН всего за 599р. 299 руб. (супер цена). Внимание количество ограничено!!!

iTunes

1+1

iTunes

мы

iTunes

1

iTunes

Чернобыль

iTunes

Ральф против интернета

Лицензия

ПШазам

Лицензия

Игра престолов

Лицензия

30
pack

ВАЖНО

!!Акция!!

Alien_RageХит недели

RePack

Resident Evil 21

ИГРА 18+

pack

RePack

Metro:Exodus

!!Акция!!

Alien_Rage

RePack

fifa19

RePack

Assassins Creed: Odyssey

RePack

NEED FOR SPEED™ PAYBACK

3 сезон

9 сезон

Бесстыжие 9 сезон

Все сериалы

все сериалы на PB.wtf

RePack

FAR CRY 5
Ребята, катастрофически не хватает 7730р. для оплаты серверов за ИЮЛЬ (всвязи с блокировками трафик упал в 3 раза), 1-2р., выручайте.
  

Колдовство / The Craft (Эндрю Флеминг) [1996 г., ужасы, фэнтези, триллер, драма, BDRip] DUB, MVO pb.wtf

Колдовство через торрент pb.wtf

Размер: 2.19 GB | Добавлен: 10 мес. назад | Торрент скачан:14 раз
Скачать  

09-10-2018 17:40 Колдовство Скачать торрент  

Колдовство / The Craft
Год выпуска: 1996
Страна: США
Жанр: Ужасы, фэнтези, триллер, драма
Продолжительность: 01:40:59
Перевод: Дубляж, профессиональный многоголосый (закадровый)

Режиссер: Эндрю Флеминг

rating

В ролях: Робин Танни, Файруза Балк, Нив Кэмпбелл, Рэйчел Тру, Скит Ульрих, Кристин Тейлор, Брекин Мейер, Натаниель Марстон, Клифф Де Янг, Ассумпта Серна

Описание: Три молодых ведьмочки, которых никто не переносит в собственной школе, в один прекрасный день вдруг интуитивно почувствовали, что вот-вот к ним присоединится четвёртая. И действительно, в классе появляется новенькая, и теперь их четверо, как и сказано в заклинании, и они могут расквитаться со всеми обидчиками. Заклинания, змеи, крысы, пауки — колдовская четвёрка не дает проходу половине города, и сами, судя по всему, получают от этого немалое удовольствие. Но игра зашла слишком далеко — они разбудили колдовские силы, которые теперь не в силах остановить, даже когда гибнут ни в чём не повинные люди.
Качество: BDRip
Формат: AVI
Видео кодек: XviD
Аудио кодек: AC3
Видео: XviD, 2123 Кбит/с, 720x384
Аудио#1: Русский, AC3, 6 ch, 384 Кбит/с DUB
Аудио#2: Русский, AC3, 2 ch, 192 Кбит/с MVO
Аудио#3: Английский, AC3, 6 ch, 384 Кбит/с
Видео
Идентификатор : 0
Формат : MPEG-4 Visual
Профиль формата : Advanced Simple@L5
Настройки формата : BVOP1
Параметр BVOP формата : 1
Параметр QPel формата : Нет
Параметр GMC формата : Без точки перехода
Параметр матрицы формата : Default (MPEG)
Идентификатор кодека : XVID
Идентификатор кодека/Подсказка : XviD
Продолжительность : 1 ч. 40 м.
Битрейт : 2123 Кбит/сек
Ширина : 720 пикселей
Высота : 384 пикселя
Соотношение сторон : 1,85:1
Частота кадров : 23,976 (24000/1001) кадра/сек
Цветовое пространство : YUV
Субдискретизация насыщенности : 4:2:0
Битовая глубина : 8 бит
Тип развёртки : Прогрессивная
Метод сжатия : С потерями
Бит/(Пиксели*Кадры) : 0.320
Размер потока : 1,50 Гбайт (68%)
Библиотека кодирования : XviD 1.2.0.dev47 (UTC 2006-11-01)

Аудио #1
Идентификатор : 1
Формат : AC-3
Формат/Информация : Audio Coding 3
Идентификатор кодека : 2000
Продолжительность : 1 ч. 40 м.
Вид битрейта : Постоянный
Битрейт : 384 Кбит/сек
Каналы : 6 каналов
Расположение каналов : Front: L C R, Side: L R, LFE
Частота : 48,0 КГц
Частота кадров : 31,250 кадров/сек (1536 SPF)
Битовая глубина : 16 бит
Метод сжатия : С потерями
Размер потока : 277 Мбайт (12%)
Выравнивание : Разделение по промежуткам
Продолжительность промежутка : 42 мс. (1,00 видеокадр)
Время предзагрузки промежутка : 500 мс.
ServiceKind/String : Complete Main

Аудио #2
Идентификатор : 2
Формат : AC-3
Формат/Информация : Audio Coding 3
Идентификатор кодека : 2000
Продолжительность : 1 ч. 40 м.
Вид битрейта : Постоянный
Битрейт : 192 Кбит/сек
Каналы : 2 канала
Расположение каналов : Front: L R
Частота : 48,0 КГц
Частота кадров : 31,250 кадров/сек (1536 SPF)
Битовая глубина : 16 бит
Метод сжатия : С потерями
Размер потока : 139 Мбайт (6%)
Выравнивание : Разделение по промежуткам
Продолжительность промежутка : 42 мс. (1,00 видеокадр)
Время предзагрузки промежутка : 500 мс.
ServiceKind/String : Complete Main

Аудио #3
Идентификатор : 3
Формат : AC-3
Формат/Информация : Audio Coding 3
Идентификатор кодека : 2000
Продолжительность : 1 ч. 40 м.
Вид битрейта : Постоянный
Битрейт : 384 Кбит/сек
Каналы : 6 каналов
Расположение каналов : Front: L C R, Side: L R, LFE
Частота : 48,0 КГц
Частота кадров : 31,250 кадров/сек (1536 SPF)
Битовая глубина : 16 бит
Метод сжатия : С потерями
Размер потока : 277 Мбайт (12%)
Выравнивание : Разделение по промежуткам
Продолжительность промежутка : 42 мс. (1,00 видеокадр)
Время предзагрузки промежутка : 500 мс.
ServiceKind/String : Complete Main

скриншот   скриншот   скриншот   скриншот   скриншот   скриншот  

pb.wtf



Скачать Колдовство через торрент http://pic1.kartinco.top/images/11/22mb6.jpg Скачать фильм Колдовство через торрент бесплантно в хорошем качестве Описание: Три молодых ведьмочки, которых никто не переносит в собственной школе, в один прекрасный день вдруг интуитивно почувствовали, что ... 10 10 1
Торрент: Зарегистрирован [2018-10-09 17:40] · скачан: 14 раз
Статус: √ проверено
Размер: 2.19 GB
Как cкачать? Как скачать Колдовство через торрент | qTorrent


>> Регистрируемся здесь <<






Отзывы и комментарии о схеме читаем и пишем здесь: ---> Отзывы и комментарии о схеме

Новые благодарочки в телеграм довольных пользователей:
скриншот   скриншот   скриншот   скриншот   скриншот
    Дорогой пользователь! Огромная просьба, поблагодарите релизера, оцените раздачу и оставьте свои комментарий, если Вы скачали Колдовство через торрент бесплатно! Внесите свою лепту в развитие PiratBit!
    Комментировать посты могут только пользователи прошедшие не сложную регистрацию
    Показать сообщения:    

    Колдовство через торрент
    Скачать бесплатно Колдовство
    Колдовство скачать торрент
    Колдовство смотреть онлайн
    Cкачать фильм Колдовство бесплатно
    Колдовство скачать торрент в хорошем качестве
    Колдовство смотреть онлайн бесплатно в хорошем качестве


    Вы не можете начинать темы
    Вы не можете отвечать на сообщения
    Вы не можете редактировать свои сообщения
    Вы не можете удалять свои сообщения
    Вы не можете голосовать в опросах
    Вы не можете прикреплять файлы к сообщениям
    Вы можете скачивать файлы