Ссылка на приватное зеркало всего за 1$. Внимание количество ограничено!!!

OK

1+1

iTunes

мы

OK

1

WEB-DLRip

Джокер

Пифагор

Ведьмак / The Witcher сериал

iTunes

ПШазам

ОК

Оно 2

iTunes

30
pack

Вам бонус

ВАЖНО

!!Акция!!

Alien_RageХит недели

RePack

Resident Evil 21

ИГРА 18+

pack

RePack

jed

RePack

fifa19

RePack

Assassins Creed: Odyssey

RePack

NEED FOR SPEED™ PAYBACK

4 сезон

9 сезон

Бесстыжие 9 сезон

Все сериалы

все сериалы на PB.wtf

RePack

FAR CRY 5
  

Злобность / Malevolent (Олаф де Флёр Йоханнессон) [2018, Ужасы, WEB-DL 720p] MVO ["Синема УС"] pb.wtf

Злобность через торрент pb.wtf

Размер: 3.39 GB | Добавлен: 1 год 3 мес. назад | Торрент скачан:88 раз
Скачать  

09-10-2018 17:44 Злобность Скачать торрент  

Злобность / Malevolent
Год выпуска: 2018
Страна: США
Жанр: Ужасы
Продолжительность: 01:31:27
Перевод: Любительский (многоголосый) | "Синема УС"
Субтитры: отсутствуют

Режиссер: Олаф де Флёр Йоханнессон

rating

В ролях:

Флоренс Пью, Селия Имри, Бен Ллойд-Хьюз, Скотт Чэмберс

Описание:

Джексон и Энджела зарабатывают на жизнь тем, что притворяются экстрасенсами и делают вид, что избавляют людей от привидений, в которых они сами не верят. Но в их новом деле что-то пошло не по плану.

Качество: WEB-DL 720p
Формат: MKV

Видео: 4914 kb/s, 1280x532
Аудио#1: Русский, (AC3, 2 ch, 384 Кбит/с)
скриншот  скриншот  скриншот  

Общее
Уникальный идентификатор : 241474632466441551316080172309173152459 (0xB5AA52927C7858AE893A7C09CBE6AACB)
Полное имя : D:\Malevolent.2018.P.WEB-DL.72Op_KOSHARA.mkv
Формат : Matroska
Версия формата : Version 2
Размер файла : 3,39 Гбайт
Продолжительность : 1 ч. 31 м.
Режим общего битрейта : Переменный
Общий поток : 5300 Кбит/сек
Дата кодирования : UTC 2018-10-07 09:56:44
Программа кодирования : mkvmerge v8.3.0 ('Over the Horizon') 64bit
Библиотека кодирования : libebml v1.3.1 + libmatroska v1.4.2

Видео
Идентификатор : 1
Формат : AVC
Формат/Информация : Advanced Video Codec
Профиль формата : High@L4.1
Параметр CABAC формата : Да
Параметр RefFrames формата : 4 кадра
Идентификатор кодека : V_MPEG4/ISO/AVC
Продолжительность : 1 ч. 31 м.
Вид битрейта : Переменный
Битрейт : 4914 Кбит/сек
Максимальный битрейт : 5500 Кбит/сек
Ширина : 1280 пикселей
Высота : 532 пикселя
Соотношение сторон : 2,40:1
Режим частоты кадров : Постоянный
Частота кадров : 23,976 (24000/1001) кадра/сек
Стандарт вещания : Component
Цветовое пространство : YUV
Субдискретизация насыщенности : 4:2:0
Битовая глубина : 8 бит
Тип развёртки : Прогрессивная
Бит/(Пиксели*Кадры) : 0.295
Размер потока : 3,07 Гбайт (91%)
Default : Да
Forced : Нет
Цветовой диапазон : Limited
Основные цвета : BT.709
Характеристики трансфера : BT.709
Коэффициенты матрицы : BT.709

Аудио
Идентификатор : 2
Формат : AC-3
Формат/Информация : Audio Coding 3
Расширение режима : CM (complete main)
Параметр Endianness формата : Big
Идентификатор кодека : A_AC3
Продолжительность : 1 ч. 31 м.
Вид битрейта : Постоянный
Битрейт : 384 Кбит/сек
Каналы : 2 канала
Расположение каналов : Front: L R
Частота : 48,0 КГц
Частота кадров : 31,250 кадров/сек (1536 spf)
Метод сжатия : С потерями
Размер потока : 251 Мбайт (7%)
Default : Да
Forced : Нет

pb.wtf



Скачать Злобность через торрент http://img11.lostpic.net/2018/10/09/bf17d050952f70747010310ae0fcab30.jpg Скачать фильм Злобность через торрент бесплантно в хорошем качестве Описание: Джексон и Энджела зарабатывают на жизнь тем, что притворяются экстрасенсами и делают вид, что избавляют людей от привидений, в ... 10 10 3
Торрент: Зарегистрирован [2018-10-09 17:44] · скачан: 88 раз
Статус: T временная
Размер: 3.39 GB
Как cкачать? Как скачать Злобность через торрент | qTorrent

% Раздел Тема Автор DL S | L
T Фильмы 2018 [DVDrip, WEB-DLRip, HDrip] (DUB, MVO) [ 1.08 GB ] Злобность / Malevolent [2018 WEB-DLRip] MVO [HDRezka Studio] - ExKinoRay Enigma2010 Скачать
1 | 0
T Фильмы 2018 [DVDrip, WEB-DLRip, HDrip] (DUB, MVO) [ 1.37 GB ] Злобность / Malevolent [2018 WEB-DLRip-AVC] MVO [HDRezka Studio] - ExKinoRay Enigma2010 Скачать
8 | 0

28-11-2019 20:33  

Отключить всю рекламу на сайте


    Дорогой пользователь! Огромная просьба, поблагодарите релизера, оцените раздачу и оставьте свои комментарий, если Вы скачали Злобность через торрент бесплатно! Внесите свою лепту в развитие PiratBit!
    Комментировать посты могут только пользователи прошедшие не сложную регистрацию
    Показать сообщения:    

    Злобность через торрент
    Скачать бесплатно Злобность
    Злобность скачать торрент
    Злобность смотреть онлайн
    Cкачать фильм Злобность бесплатно
    Злобность скачать торрент в хорошем качестве
    Злобность смотреть онлайн бесплатно в хорошем качестве


    Вы не можете начинать темы
    Вы не можете отвечать на сообщения
    Вы не можете редактировать свои сообщения
    Вы не можете удалять свои сообщения
    Вы не можете голосовать в опросах
    Вы не можете прикреплять файлы к сообщениям
    Вы можете скачивать файлы