Мега распродажа FORZA HORIZON 4 ULTIMATE+ВСЕ DLC+ОНЛАЙН всего за 499р. 349 руб. (супер цена). Внимание количество ограничено!!!

iTunes

1+1

iTunes

мы

iTunes

1

1 сезон

Чернобыль

1 сезон

Ральф против интернета

Лицензия

ПШазам

8 сезон

Игра престолов

Лицензия

30
pack

ВАЖНО

!!Акция!!

Alien_RageХит недели

RePack

Resident Evil 21

ИГРА 18+

pack

RePack

Metro:Exodus

!!Акция!!

Alien_Rage

RePack

fifa19

RePack

Assassins Creed: Odyssey

RePack

NEED FOR SPEED™ PAYBACK

3 сезон

9 сезон

Бесстыжие 9 сезон

Все сериалы

все сериалы на PB.wtf

RePack

FAR CRY 5
Ребята, катастрофически не хватает 2730р. для оплаты серверов за ИЮНЬ (всвязи с блокировками трафик упал в 3 раза), 1-2р., выручайте.
  

Ходячие мертвецы / The Walking Dead / Сезон: 9 / Серии: 1-16 из 16 (Эрнест Р. Дикерсон, Грег Никотеро, Гай Ферленд) [2018, Ужасы, триллер, драма, WEB-DLRip] MVO [LostFilm] pb.wtf

Ходячие мертвецы через торрент pb.wtf

Раздают: 4 [ 545 KB/s ] Качают: 2 [ 0 KB/s ]
Размер: 9.37 GB | Добавлен: 3 мес. 14 д. назад | Торрент скачан:147 раз
Скачать  

09-10-2018 17:54 Ходячие мертвецы Скачать торрент  

Ходячие мертвецы | The Walking Dead ✦ Название: Ходячие мертвецы
✦ Оригинальное название: The Walking Dead
✦ Год выпуска: 2018
✦ Страна: США
✦ Жанр: ужасы, триллер, драма
✦ Продолжительность: ~ 00:55:00 серия
✦ Перевод: Профессиональный (многоголосый закадровый) | LostFilm
✦ Субтитры: отсутствуют

Режиссёры: Эрнест Р. Дикерсон, Грег Никотеро, Гай Ферленд

В ролях:

Эндрю Линкольн, Скотт Уилсон, Данай Джекесай Гурира, Дэвид Моррисси, Стивен Юн, Лорен Коэн, Чендлер Риггз, Норман Ридус, Мелисса Сюзанн МакБрайд, Эмили Кинни, Чад Коулмэн, Сонеква Мартин и другие.

Описание:

Сериал рассказывает историю жизни семьи шерифа после того, как «зомби» — эпидемия апокалиптических масштабов захлестнула земной шар. Шериф Рик Граймс путешествует со своей семьей и небольшой группой выживших в поисках безопасного места для жизни. Но постоянный страх смерти каждый день приносит тяжелые потери, заставляя героев почувствовать глубины человеческой жестокости. Рик пытается спасти свою семью, и открывает для себя, что всепоглощающий страх тех, кто выжил, может быть опаснее бессмысленных мертвецов, бродящих по земле.

rating

✦ Качество: WEB-DLRip
✦ Формат: AVI

✦ Видео: XviD, ~ 1400 kbps, 720x400 (16:9), 23.976 fps
✦ Аудио 1: MP3, 48,0 КГц, 2 ch, 128 kbps - Rus
✦ Аудио 2: MP3, 48,0 КГц, 2 ch, 128 kbps - Eng
скриншот  скриншот  скриншот  

Общее
Полное имя : D:\Ходячие мертвецы (сезон 9) The Walking Dead (2018) WEB-DLRip - LostFilm\The.Walking.Dead.S09E01.WEB-DLRip.Rus.Eng.DV.LostFilm.avi
Формат : AVI
Формат/Информация : Audio Video Interleave
Размер файла : 744 Мбайт
Продолжительность : 58 м. 34 с.
Общий поток : 1776 Кбит/сек
Название фильма : The.Walking.Dead.S09E01.WEB-DLRip.Rus.Eng.DV.LostFilm / NNM-Club
Программа кодирования : VirtualDubModRus 1.5.10.2 (build 2542/release)
Библиотека кодирования : VirtualDubMod build 2542/release

Видео
Идентификатор : 0
Формат : MPEG-4 Visual
Профиль формата : Advanced Simple@L5
Параметр BVOP формата : 2
Параметр QPel формата : Нет
Параметр GMC формата : Без точки перехода
Параметр матрицы формата : Default (H.263)
Идентификатор кодека : XVID
Идентификатор кодека/Подсказка : XviD
Продолжительность : 58 м. 34 с.
Битрейт : 1506 Кбит/сек
Ширина : 720 пикселей
Высота : 400 пикселей
Соотношение сторон : 16:9
Частота кадров : 23,976 (24000/1001) кадра/сек
Цветовое пространство : YUV
Субдискретизация насыщенности : 4:2:0
Битовая глубина : 8 бит
Тип развёртки : Прогрессивная
Метод сжатия : С потерями
Бит/(Пиксели*Кадры) : 0.218
Размер потока : 631 Мбайт (85%)
Заголовок : Rip by DriverV / NNM-Club
Библиотека кодирования : XviD 67

Аудио #1
Идентификатор : 1
Формат : MPEG Audio
Версия формата : Version 1
Профиль формата : Layer 3
Режим : Joint stereo
Расширение режима : MS Stereo
Идентификатор кодека : 55
Идентификатор кодека/Подсказка : MP3
Продолжительность : 58 м. 34 с.
Вид битрейта : Постоянный
Битрейт : 128 Кбит/сек
Каналы : 2 канала
Частота : 48,0 КГц
Метод сжатия : С потерями
Размер потока : 53,6 Мбайт (7%)
Выравнивание : Соединение по промежуткам
Продолжительность промежутка : 42 мс. (1,00 видеокадр)
Время предзагрузки промежутка : 504 мс.

Аудио #2
Идентификатор : 2
Формат : MPEG Audio
Версия формата : Version 1
Профиль формата : Layer 3
Режим : Joint stereo
Расширение режима : MS Stereo
Идентификатор кодека : 55
Идентификатор кодека/Подсказка : MP3
Продолжительность : 58 м. 34 с.
Вид битрейта : Постоянный
Битрейт : 128 Кбит/сек
Каналы : 2 канала
Частота : 48,0 КГц
Метод сжатия : С потерями
Размер потока : 53,6 Мбайт (7%)
Выравнивание : Соединение по промежуткам
Продолжительность промежутка : 42 мс. (1,00 видеокадр)
Время предзагрузки промежутка : 504 мс.

Когда раздача ведётся путём добавления новых серий, при каждом добавлении создётся новый торрент. Чтобы начать докачку новой серии, пользователям необходимо сделать следующее:
(1) остановить скачивание,
(2) удалить старый торрент у себя из клиента (старые серии удалять не надо),
(3) скачать новый торрент и запустить его у себя в клиенте вместо старого, при этом указать клиенту путь в старую папку, куда и должно происходить скачивание новых серий.
Ваш клиент при этом должен произвести хеширование (проверку) старой папки (если не производит сам - помогите ему сделать это), и будет докачивать только те серии, которых у вас ещё нет. Старые серии при этом не удаляются, а продолжают раздаваться!
Eсли вы уже удалили старые серии, то предотвратить повторную закачку старых серий можно, отжав галочку в соответсвующих местах при запуске нового торрента. По возможности, желательно не удалять старые серии как можно дольше, чтобы релизёр не столько продолжал раздавать старые серии, а смог сконцентрироваться на новых.
pb.wtf



Скачать Ходячие мертвецы через торрент https://a.radikal.ru/a27/1810/73/8134e275af37.jpg Скачать фильм Ходячие мертвецы через торрент бесплантно в хорошем качестве Описание: Сериал рассказывает историю жизни семьи шерифа после того, как «зомби» — эпидемия апокалиптических масштабов захлестнула земной ... 9.2 10 18
Info! Серебряная раздача, засчитывается только 50% скачанного.
Торрент: Зарегистрирован [2019-04-07 17:28] · скачан: 147 раз
Статус: √ проверено
Размер: 9.37 GB
Как cкачать? Как скачать Ходячие мертвецы через торрент | qTorrent

% Раздел Тема Автор DL S | L
Ходячие мертвецы (The Walking Dead) [ 8.89 GB ] Ходячие мертвецы / The Walking Dead / Сезон: 9 / Серии: 1-16 из 16 [2018 WEB-DLRip] MVO [FOX] bober100 Скачать
4 | 0
Ходячие мертвецы (The Walking Dead) [ 30.56 GB ] Ходячие мертвецы / The Walking Dead / Сезон: 9 / Серии: 1-16 из 16 [2018 WEB-DL 720p] MVO [LostFilm] bober100 Скачать
3 | 2
Ходячие мертвецы (The Walking Dead) [ 9.27 GB ] Ходячие мертвецы / The Walking Dead / Сезон: 9 / Серии: 1-16 из 16 [2018 WEBRip] [MVO] killermax2013 Скачать
1 | 0
Ходячие мертвецы (The Walking Dead) [ 69.33 GB ] Ходячие мертвецы / The Walking Dead / Сезон: 9 / Серии: 1-16 из 16 [2018 WEB-DL 1080p] MVO [LostFilm] bober100 Скачать
1 | 0
Ходячие мертвецы (The Walking Dead) [ 31.86 GB ] Ходячие мертвецы / The Walking Dead / Сезон: 9 / Серии: 1-16 из 16 [2018 WEB-DL 1080p] MVO [FOX] bober100 Скачать
1 | 4
Ходячие мертвецы (The Walking Dead) [ 63.26 GB ] Ходячие мертвецы / The Walking Dead / Сезон: 9 / Серии: 1-15 из 16 [2018 WEB-DL 1080p] MVO [Jaskier] bober100 Скачать
1 | 0
Ходячие мертвецы (The Walking Dead) [ 25.77 GB ] Ходячие мертвецы / The Walking Dead / Сезон: 9 / Серии: 1-15 из 16 [2018 WEB-DL 720p] MVO [Jaskier] bober100 Скачать
2 | 0


Последний раз редактировалось: bober100 (2019-04-07 17:28), всего редактировалось 2 раз(а)


>> Регистрируемся здесь <<






Отзывы и комментарии о схеме читаем и пишем здесь: ---> Отзывы и комментарии о схеме

Новые благодарочки в телеграм довольных пользователей:
скриншот   скриншот   скриншот   скриншот   скриншот

18-03-2019 10:22 Ходячие мертвецы Скачать торрент  

Всем привет, а когда новые серии будут?pb.wtf



    Дорогой пользователь! Огромная просьба, поблагодарите релизера, оцените раздачу и оставьте свои комментарий, если Вы скачали Ходячие мертвецы через торрент бесплатно! Внесите свою лепту в развитие PiratBit!
    Комментировать посты могут только пользователи прошедшие не сложную регистрацию
    Показать сообщения:    

    Ходячие мертвецы через торрент
    Скачать бесплатно Ходячие мертвецы
    Ходячие мертвецы скачать торрент
    Ходячие мертвецы смотреть онлайн
    Cкачать фильм Ходячие мертвецы бесплатно
    Ходячие мертвецы скачать торрент в хорошем качестве
    Ходячие мертвецы смотреть онлайн бесплатно в хорошем качестве


    Вы не можете начинать темы
    Вы не можете отвечать на сообщения
    Вы не можете редактировать свои сообщения
    Вы не можете удалять свои сообщения
    Вы не можете голосовать в опросах
    Вы не можете прикреплять файлы к сообщениям
    Вы можете скачивать файлы