Ссылка на приватное зеркало нашего сайта всего за 1$. Внимание количество ограничено!!!

2 сезон

iTunes

1 сезон

1

2 сезон

2 сезон

iTunes

1 сезон

RePack

30

Новинка

ВАЖНО

ИГРА 18+

pack

RePack

MK11
pack

Забери бонус

RePack

jed

!!Акция!!

Alien_Rage

RePack

fifa19

RePack

Assassins Creed: Odyssey

RePack

NEED FOR SPEED™ PAYBACK

4 сезон

9 сезон

Бесстыжие 9 сезон

Все сериалы

все сериалы на PB.wtf

RePack

FAR CRY 5
  

Черная молния / Black Lightning / Сезон: 2 / Серии: 1-16 из 16 (Салим Акил, Билле Вудрафф) [2018, фантастика, боевик, HDTVRip 720p] DVO [KosharaSerials] pb.wtf

Черная молния через торрент pb.wtf

Размер: 13.28 GB | Добавлен: 1 год 8 мес. назад | Торрент скачан:6 раз
Скачать  

10-10-2018 04:31 Черная молния Скачать торрент  

Черная молния / Black Lightning
Год выпуска: 2018
Страна: США
Жанр: фантастика, боевик
Продолжительность: ~ 00:44:00
Перевод: Любительский (двухголосый) | KosharaSerials
Субтитры: отсутствуют

Режиссер: Салим Акил, Билле Вудрафф

rating

В ролях:

Грегг Генри, Кресс Уильямс, Нафиса Уильямс, Чайна Энн МакКлейн, Кристин Адамс,Донни Керрингтон, Чарлби Дин Крик, Шеин Момпремиа, Энтони Рейнольдс, Чантал Тхюй

Описание:

Сериал посвящен супергерою DC Черной молнии, который вынужден вернуться из добровольной отставки, когда опасная банда начинает угрожать спокойствию жителей его города.

Качество: HDTVRip 720p
Формат: MKV

Видео: 3000 Кбит/с, 1280x720, 24.000 fps
Аудио: Русский (AC3, 2 ch, 192 Кбит/с)
скриншот  скриншот  скриншот  скриншот  

Общее
Уникальный идентификатор : 240402194985923695622215705010051555846 (0xB4DBC752759CC2C7887DAA9510BD2206)
Полное имя : D:\Black.Lightning.S02.720p.KosharaSerials\Black.Lightning.S02E01.720p.KosharaSerials.mkv
Формат : Matroska
Версия формата : Version 4 / Version 2
Размер файла : 807 Мбайт
Продолжительность : 42 м. 53 с.
Общий поток : 2632 Кбит/сек
Дата кодирования : UTC 2018-10-10 09:08:25
Программа кодирования : mkvmerge v8.3.0 ('Over the Horizon') 64bit
Библиотека кодирования : libebml v1.3.1 + libmatroska v1.4.2

Видео
Идентификатор : 1
Формат : AVC
Формат/Информация : Advanced Video Codec
Профиль формата : High@L3.1
Параметр CABAC формата : Да
Параметр RefFrames формата : 4 кадра
Идентификатор кодека : V_MPEG4/ISO/AVC
Продолжительность : 42 м. 53 с.
Битрейт : 2387 Кбит/сек
Ширина : 1280 пикселей
Высота : 720 пикселей
Соотношение сторон : 16:9
Режим частоты кадров : Постоянный
Частота кадров : 23,976 (24000/1001) кадра/сек
Частота кадров в оригинале : 23,976 (23976/1000) кадра/сек
Цветовое пространство : YUV
Субдискретизация насыщенности : 4:2:0
Битовая глубина : 8 бит
Тип развёртки : Прогрессивная
Бит/(Пиксели*Кадры) : 0.108
Размер потока : 732 Мбайт (91%)
Библиотека кодирования : x264 core 146 r2538 121396c
Настройки программы : cabac=1 / ref=1 / deblock=1:0:0 / analyse=0x3:0x113 / me=hex / subme=2 / psy=1 / psy_rd=1.00:0.00 / mixed_ref=0 / me_range=16 / chroma_me=1 / trellis=0 / 8x8dct=1 / cqm=0 / deadzone=21,11 / fast_pskip=1 / chroma_qp_offset=0 / threads=6 / lookahead_threads=2 / sliced_threads=0 / nr=0 / decimate=1 / interlaced=0 / bluray_compat=0 / constrained_intra=0 / bframes=3 / b_pyramid=2 / b_adapt=1 / b_bias=0 / direct=1 / weightb=1 / open_gop=0 / weightp=1 / keyint=250 / keyint_min=23 / scenecut=40 / intra_refresh=0 / rc_lookahead=10 / rc=crf / mbtree=1 / crf=18.0 / qcomp=0.60 / qpmin=0 / qpmax=69 / qpstep=4 / ip_ratio=1.40 / aq=1:1.00
Default : Да
Forced : Нет

Аудио
Идентификатор : 2
Формат : AC-3
Формат/Информация : Audio Coding 3
Расширение режима : CM (complete main)
Параметр Endianness формата : Big
Идентификатор кодека : A_AC3
Продолжительность : 42 м. 53 с.
Вид битрейта : Постоянный
Битрейт : 192 Кбит/сек
Каналы : 2 канала
Расположение каналов : Front: L R
Частота : 48,0 КГц
Частота кадров : 31,250 кадров/сек (1536 spf)
Метод сжатия : С потерями
Размер потока : 58,9 Мбайт (7%)
Default : Да
Forced : Нет

Когда раздача ведётся путём добавления новых серий, при каждом добавлении создётся новый торрент. Чтобы начать докачку новой серии, пользователям необходимо сделать следующее:
(1) остановить скачивание,
(2) удалить старый торрент у себя из клиента (старые серии удалять не надо),
(3) скачать новый торрент и запустить его у себя в клиенте вместо старого, при этом указать клиенту путь в старую папку, куда и должно происходить скачивание новых серий.
Ваш клиент при этом должен произвести хеширование (проверку) старой папки (если не производит сам - помогите ему сделать это), и будет докачивать только те серии, которых у вас ещё нет. Старые серии при этом не удаляются, а продолжают раздаваться!
Eсли вы уже удалили старые серии, то предотвратить повторную закачку старых серий можно, отжав галочку в соответсвующих местах при запуске нового торрента. По возможности, желательно не удалять старые серии как можно дольше, чтобы релизер не столько продолжал раздавать старые серии, а смог сконцентрироваться на новых.
pb.wtf



Скачать Черная молния через торрент http://img11.lostpic.net/2018/10/10/305e93cca5378f51a08b02643fd7af0d.jpg Скачать фильм Черная молния через торрент бесплантно в хорошем качестве Описание: Сериал посвящен супергерою DC Черной молнии, который вынужден вернуться из добровольной отставки, когда опасная банда начинает ... 7.8 10 4
Торрент: Зарегистрирован [2019-03-19 09:54] · скачан: 6 раз
Статус: √ проверено
Размер: 13.28 GB
Как cкачать? Как скачать Черная молния через торрент | qTorrent

% Раздел Тема Автор DL S | L
Зарубежные сериалы [ 9.07 GB ] Черная молния / Black Lightning / Сезон: 2 / Серии: 1-16 из 16 [2018 WEB-DLRip] [MVO] killermax2013 Скачать
1 | 0
Зарубежные сериалы [ 20.48 GB ] Черная молния / Black Lightning / Сезон: 2 / Серии: 1-16 из 16 [2018 WEB-DL 720p] MVO [Jaskier] bober100 Скачать
1 | 0
Зарубежные сериалы [ 36.27 GB ] Черная молния / Black Lightning / Сезон: 2 / Серии: 1-16 из 16 [2018 WEB-DL 1080p] MVO [Jaskier] bober100 Скачать
1 | 0
Зарубежные сериалы [ 8.33 GB ] Черная молния / Black Lightning / Сезон: 2 / Серии: 1-16 из 16 [2018 WEB-DLRip] MVO [Jaskier] bober100 Скачать
1 | 0
Зарубежные сериалы [ 51.69 GB ] Черная молния / Black Lightning / Сезон 2 / Серия 1-16 из 16 [2018 WEB-DL 1080p] 3x [MVO] killermax2013 Скачать
1 | 0
Зарубежные сериалы [ 20.7 GB ] Черная молния / Black Lightning / Сезон: 2 / Серии: 1-16 из 16 [2018 WEBRip 720p] MVO [Good People] bober100 Скачать
1 | 0

28-11-2019 20:33  

Отключить всю рекламу на сайте

    Дорогой пользователь! Огромная просьба, поблагодарите релизера, оцените раздачу и оставьте свои комментарий, если Вы скачали Черная молния через торрент бесплатно! Внесите свою лепту в развитие PiratBit!
    Комментировать посты могут только пользователи прошедшие не сложную регистрацию
    Показать сообщения:    

    Черная молния через торрент
    Скачать бесплатно Черная молния
    Черная молния скачать торрент
    Черная молния смотреть онлайн
    Cкачать фильм Черная молния бесплатно
    Черная молния скачать торрент в хорошем качестве
    Черная молния смотреть онлайн бесплатно в хорошем качестве


    Вы не можете начинать темы
    Вы не можете отвечать на сообщения
    Вы не можете редактировать свои сообщения
    Вы не можете удалять свои сообщения
    Вы не можете голосовать в опросах
    Вы не можете прикреплять файлы к сообщениям
    Вы можете скачивать файлы