Мега распродажа FORZA HORIZON 4 ULTIMATE+ВСЕ DLC+ОНЛАЙН всего за 499р. 349 руб. (супер цена). Внимание количество ограничено!!!

iTunes

1+1

iTunes

мы

iTunes

1

1 сезон

Чернобыль

1 сезон

Ральф против интернета

Лицензия

ПШазам

8 сезон

Игра престолов

Лицензия

30
pack

ВАЖНО

!!Акция!!

Alien_RageХит недели

RePack

Resident Evil 21

ИГРА 18+

pack

RePack

Metro:Exodus

!!Акция!!

Alien_Rage

RePack

fifa19

RePack

Assassins Creed: Odyssey

RePack

NEED FOR SPEED™ PAYBACK

3 сезон

9 сезон

Бесстыжие 9 сезон

Все сериалы

все сериалы на PB.wtf

RePack

FAR CRY 5
Ребята, катастрофически не хватает 2730р. для оплаты серверов за ИЮНЬ (всвязи с блокировками трафик упал в 3 раза), 1-2р., выручайте.
  

Ходячие мертвецы / The Walking Dead / Сезон: 9 / Серии: 1-16 из 16 (Эрнест Р. Дикерсон, Грег Никотеро, Гай Ферленд) [2018, Ужасы, триллер, драма, WEB-DL 1080p] MVO [LostFilm] pb.wtf

Ходячие мертвецы через торрент pb.wtf

Размер: 69.33 GB | Добавлен: 3 мес. 14 д. назад | Торрент скачан:45 раз
Скачать  

10-10-2018 08:39 Ходячие мертвецы Скачать торрент  

Ходячие мертвецы | The Walking Dead ✦ Название: Ходячие мертвецы
✦ Оригинальное название: The Walking Dead
✦ Год выпуска: 2018
✦ Страна: США
✦ Жанр: ужасы, триллер, драма
✦ Продолжительность: ~ 00:55:00 серия
✦ Перевод: Профессиональный (многоголосый закадровый) | LostFilm
✦ Субтитры: English (Full, SDH)

Режиссёры: Эрнест Р. Дикерсон, Грег Никотеро, Гай Ферленд

В ролях:

Эндрю Линкольн, Скотт Уилсон, Данай Джекесай Гурира, Дэвид Моррисси, Стивен Юн, Лорен Коэн, Чендлер Риггз, Норман Ридус, Мелисса Сюзанн МакБрайд, Эмили Кинни, Чад Коулмэн, Сонеква Мартин и другие.

Описание:

Сериал рассказывает историю жизни семьи шерифа после того, как «зомби» — эпидемия апокалиптических масштабов захлестнула земной шар. Шериф Рик Граймс путешествует со своей семьей и небольшой группой выживших в поисках безопасного места для жизни. Но постоянный страх смерти каждый день приносит тяжелые потери, заставляя героев почувствовать глубины человеческой жестокости. Рик пытается спасти свою семью, и открывает для себя, что всепоглощающий страх тех, кто выжил, может быть опаснее бессмысленных мертвецов, бродящих по земле.

rating

✦ Качество: WEB-DL 1080p | Чистый видеоряд
✦ Формат: MKV

✦ Видео: 1920x1080 at 23.976 fps, MPEG-4 AVC, ~13000 kbps avg
✦ Аудио 1: Russian: 48 kHz, AC3, 3/2 (L,C,R,l,r) + LFE ch, ~640 kbps avg |Многоголосый закадровый, LostFilm|
✦ Аудио 2: English: 48 kHz, AC3, 3/2 (L,C,R,l,r) + LFE ch, ~640 kbps avg
скриншот  скриншот  скриншот  скриншот  

Общее
Полное имя : D:\The_Walking_Dead_(s09)_LostFilm_1080p\The.Walking.Dead.s09e01.WEB-DL.1080p.mkv
Формат : Matroska
Версия формата : Version 2
Размер файла : 6,15 Гбайт
Продолжительность : 58 м. 34 с.
Общий поток : 15,0 Мбит/сек
Название фильма : The Walking Dead 09x01 (A New Beginning) - release by messafan for CasStudio
Дата кодирования : UTC 2018-10-10 02:53:00
Программа кодирования : mkvmerge v4.9.1 ('Ich will') сборка от Jul 11 2011 23:53:15
Библиотека кодирования : libebml v1.2.1 + libmatroska v1.1.1

Видео
Идентификатор : 1
Формат : AVC
Формат/Информация : Advanced Video Codec
Профиль формата : High@L4
Настройки формата : CABAC / 4 Ref Frames
Параметр CABAC формата : Да
Параметр RefFrames формата : 4 кадра
Идентификатор кодека : V_MPEG4/ISO/AVC
Продолжительность : 58 м. 34 с.
Битрейт : 13,4 Мбит/сек
Ширина : 1920 пикселей
Высота : 1080 пикселей
Соотношение сторон : 16:9
Режим частоты кадров : Постоянный
Частота кадров : 23,976 (24000/1001) кадра/сек
Цветовое пространство : YUV
Субдискретизация насыщенности : 4:2:0
Битовая глубина : 8 бит
Тип развёртки : Прогрессивная
Бит/(Пиксели*Кадры) : 0.270
Размер потока : 5,50 Гбайт (89%)
Заголовок : Release by EniaHD
Default : Да
Forced : Нет
Цветовой диапазон : Limited
Основные цвета : BT.709
Характеристики трансфера : BT.709
Коэффициенты матрицы : BT.709

Аудио #1
Идентификатор : 2
Формат : AC-3
Формат/Информация : Audio Coding 3
Параметр Endianness формата : Big
Идентификатор кодека : A_AC3
Продолжительность : 58 м. 34 с.
Вид битрейта : Постоянный
Битрейт : 640 Кбит/сек
Каналы : 6 каналов
Расположение каналов : Front: L C R, Side: L R, LFE
Частота : 48,0 КГц
Частота кадров : 31,250 кадров/сек (1536 SPF)
Битовая глубина : 16 бит
Метод сжатия : С потерями
Размер потока : 268 Мбайт (4%)
Заголовок : LostFilm
Язык : Russian
ServiceKind/String : Complete Main
Default : Да
Forced : Нет

Аудио #2
Идентификатор : 3
Формат : AC-3
Формат/Информация : Audio Coding 3
Параметр Endianness формата : Big
Идентификатор кодека : A_AC3
Продолжительность : 58 м. 34 с.
Вид битрейта : Постоянный
Битрейт : 640 Кбит/сек
Каналы : 6 каналов
Расположение каналов : Front: L C R, Side: L R, LFE
Частота : 48,0 КГц
Частота кадров : 31,250 кадров/сек (1536 SPF)
Битовая глубина : 16 бит
Метод сжатия : С потерями
Размер потока : 268 Мбайт (4%)
Язык : English
ServiceKind/String : Complete Main
Default : Нет
Forced : Нет

Текст #1
Идентификатор : 4
Формат : UTF-8
Идентификатор кодека : S_TEXT/UTF8
Идентификатор кодека/Информация : UTF-8 Plain Text
Заголовок : Full
Язык : English
Default : Нет
Forced : Нет

Текст #2
Идентификатор : 5
Формат : UTF-8
Идентификатор кодека : S_TEXT/UTF8
Идентификатор кодека/Информация : UTF-8 Plain Text
Заголовок : SDH
Язык : English
Default : Нет
Forced : Нет

Когда раздача ведётся путём добавления новых серий, при каждом добавлении создётся новый торрент. Чтобы начать докачку новой серии, пользователям необходимо сделать следующее:
(1) остановить скачивание,
(2) удалить старый торрент у себя из клиента (старые серии удалять не надо),
(3) скачать новый торрент и запустить его у себя в клиенте вместо старого, при этом указать клиенту путь в старую папку, куда и должно происходить скачивание новых серий.
Ваш клиент при этом должен произвести хеширование (проверку) старой папки (если не производит сам - помогите ему сделать это), и будет докачивать только те серии, которых у вас ещё нет. Старые серии при этом не удаляются, а продолжают раздаваться!
Eсли вы уже удалили старые серии, то предотвратить повторную закачку старых серий можно, отжав галочку в соответсвующих местах при запуске нового торрента. По возможности, желательно не удалять старые серии как можно дольше, чтобы релизёр не столько продолжал раздавать старые серии, а смог сконцентрироваться на новых.
pb.wtf



Скачать Ходячие мертвецы через торрент http://img10.lostpic.net/2018/10/12/2f7fb4769a5a5191fd1f10b69db71283.png Скачать фильм Ходячие мертвецы через торрент бесплантно в хорошем качестве Описание: Сериал рассказывает историю жизни семьи шерифа после того, как «зомби» — эпидемия апокалиптических масштабов захлестнула земной ... 10 10 12
Info! Золотая раздача, скачанное не засчитывается.
Торрент: Зарегистрирован [2019-04-07 17:37] · скачан: 45 раз
Статус: √ проверено
Размер: 69.33 GB
Как cкачать? Как скачать Ходячие мертвецы через торрент | qTorrent

% Раздел Тема Автор DL S | L
Ходячие мертвецы (The Walking Dead) [ 9.37 GB ] Ходячие мертвецы / The Walking Dead / Сезон: 9 / Серии: 1-16 из 16 [2018 WEB-DLRip] MVO [LostFilm] bober100 Скачать
5 | 2
Ходячие мертвецы (The Walking Dead) [ 8.89 GB ] Ходячие мертвецы / The Walking Dead / Сезон: 9 / Серии: 1-16 из 16 [2018 WEB-DLRip] MVO [FOX] bober100 Скачать
4 | 0
Ходячие мертвецы (The Walking Dead) [ 30.56 GB ] Ходячие мертвецы / The Walking Dead / Сезон: 9 / Серии: 1-16 из 16 [2018 WEB-DL 720p] MVO [LostFilm] bober100 Скачать
3 | 2
Ходячие мертвецы (The Walking Dead) [ 9.27 GB ] Ходячие мертвецы / The Walking Dead / Сезон: 9 / Серии: 1-16 из 16 [2018 WEBRip] [MVO] killermax2013 Скачать
1 | 0
Ходячие мертвецы (The Walking Dead) [ 31.86 GB ] Ходячие мертвецы / The Walking Dead / Сезон: 9 / Серии: 1-16 из 16 [2018 WEB-DL 1080p] MVO [FOX] bober100 Скачать
1 | 4
Ходячие мертвецы (The Walking Dead) [ 63.26 GB ] Ходячие мертвецы / The Walking Dead / Сезон: 9 / Серии: 1-15 из 16 [2018 WEB-DL 1080p] MVO [Jaskier] bober100 Скачать
1 | 0
Ходячие мертвецы (The Walking Dead) [ 25.77 GB ] Ходячие мертвецы / The Walking Dead / Сезон: 9 / Серии: 1-15 из 16 [2018 WEB-DL 720p] MVO [Jaskier] bober100 Скачать
2 | 0


>> Регистрируемся здесь <<






Отзывы и комментарии о схеме читаем и пишем здесь: ---> Отзывы и комментарии о схеме

Новые благодарочки в телеграм довольных пользователей:
скриншот   скриншот   скриншот   скриншот   скриншот
    Дорогой пользователь! Огромная просьба, поблагодарите релизера, оцените раздачу и оставьте свои комментарий, если Вы скачали Ходячие мертвецы через торрент бесплатно! Внесите свою лепту в развитие PiratBit!
    Комментировать посты могут только пользователи прошедшие не сложную регистрацию
    Показать сообщения:    

    Ходячие мертвецы через торрент
    Скачать бесплатно Ходячие мертвецы
    Ходячие мертвецы скачать торрент
    Ходячие мертвецы смотреть онлайн
    Cкачать фильм Ходячие мертвецы бесплатно
    Ходячие мертвецы скачать торрент в хорошем качестве
    Ходячие мертвецы смотреть онлайн бесплатно в хорошем качестве


    Вы не можете начинать темы
    Вы не можете отвечать на сообщения
    Вы не можете редактировать свои сообщения
    Вы не можете удалять свои сообщения
    Вы не можете голосовать в опросах
    Вы не можете прикреплять файлы к сообщениям
    Вы можете скачивать файлы