Ссылка на приватное зеркало всего за 1$. Внимание количество ограничено!!!

OK

1+1

iTunes

мы

OK

1

WEB-DLRip

Джокер

Пифагор

Ведьмак / The Witcher сериал

iTunes

ПШазам

ОК

Оно 2

iTunes

30
pack

Вам бонус

ВАЖНО

!!Акция!!

Alien_RageХит недели

RePack

Resident Evil 21

ИГРА 18+

pack

RePack

jed

RePack

fifa19

RePack

Assassins Creed: Odyssey

RePack

NEED FOR SPEED™ PAYBACK

4 сезон

9 сезон

Бесстыжие 9 сезон

Все сериалы

все сериалы на PB.wtf

RePack

FAR CRY 5
  

Похитители носков / Lichozrouti (Галина Миклинова) [2016, мультфильм, фэнтези, приключения, семейный, WEB-DL 720p] DUB [Line] pb.wtf

Похитители носков через торрент pb.wtf

Размер: 3.12 GB | Добавлен: 1 год 3 мес. назад | Торрент скачан:119 раз
Скачать  

10-10-2018 10:23 Похитители носков Скачать торрент  

Похитители носков / LichozroutiГод выпуска: 2016
Страна: Чехия, Словакия, Хорватия
Жанр: мультфильм, фэнтези, приключения, семейный
Продолжительность: 01:23:36
Перевод: Дублированный | Line
Субтитры: отсутствуют

Режиссер: Галина Миклинова

rating

В ролях:

Криштоф Гадек, Ян Максиан, Давид Новотны, Онджей Троян, Марек Тацлик, Татьяна Вильгельмова, Йозеф Шомр, Алес Найбрт, Матей Рупперт, Вацлав Коубек

Описание:

Может быть, у вас вчера или в эту самую минуту пропал носок. Кто в этом виноват? Носкоед! Загадочное и неуловимое существо, которое пожирает один носок из пары.

Качество: WEB-DL 720p
Формат: MKV

Видео: h.264,4939 Кбит/с, 1280x720
Аудио#1: Русский (AC3, 2 ch, 384 Кбит/с)
скриншот  скриншот  скриншот  

Общее
Уникальный идентификатор : 243511247101810346139071146794872935315 (0xB7328F6D1FAB2ACEBBBA16AD84DB1393)
Полное имя : D:\PoXiTiTeLi.NosKoFF.2O18.D.WEB-DL.72Op.mkv
Формат : Matroska
Версия формата : Version 2
Размер файла : 3,12 Гбайт
Продолжительность : 1 ч. 23 м.
Режим общего битрейта : Переменный
Общий поток : 5324 Кбит/сек
Дата кодирования : UTC 2018-10-07 06:08:53
Программа кодирования : mkvmerge v8.3.0 ('Over the Horizon') 64bit
Библиотека кодирования : libebml v1.3.1 + libmatroska v1.4.2

Видео
Идентификатор : 1
Формат : AVC
Формат/Информация : Advanced Video Codec
Профиль формата : High@L4.1
Параметр CABAC формата : Да
Параметр RefFrames формата : 4 кадра
Идентификатор кодека : V_MPEG4/ISO/AVC
Продолжительность : 1 ч. 23 м.
Вид битрейта : Переменный
Битрейт : 4939 Кбит/сек
Максимальный битрейт : 5500 Кбит/сек
Ширина : 1280 пикселей
Высота : 720 пикселей
Соотношение сторон : 16:9
Режим частоты кадров : Постоянный
Частота кадров : 23,976 (24000/1001) кадра/сек
Стандарт вещания : Component
Цветовое пространство : YUV
Субдискретизация насыщенности : 4:2:0
Битовая глубина : 8 бит
Тип развёртки : Прогрессивная
Бит/(Пиксели*Кадры) : 0.219
Размер потока : 2,83 Гбайт (91%)
Default : Да
Forced : Нет
Цветовой диапазон : Limited
Основные цвета : BT.709
Характеристики трансфера : BT.709
Коэффициенты матрицы : BT.709

Аудио
Идентификатор : 2
Формат : AC-3
Формат/Информация : Audio Coding 3
Расширение режима : CM (complete main)
Параметр Endianness формата : Big
Идентификатор кодека : A_AC3
Продолжительность : 1 ч. 23 м.
Вид битрейта : Постоянный
Битрейт : 384 Кбит/сек
Каналы : 2 канала
Расположение каналов : Front: L R
Частота : 48,0 КГц
Частота кадров : 31,250 кадров/сек (1536 spf)
Метод сжатия : С потерями
Размер потока : 230 Мбайт (7%)
Default : Да
Forced : Нет

pb.wtf



Скачать Похитители носков через торрент https://b.radikal.ru/b17/1810/33/424af121b83a.jpg Скачать фильм Похитители носков через торрент бесплантно в хорошем качестве Описание: Может быть, у вас вчера или в эту самую минуту пропал носок. Кто в этом виноват? Носкоед! Загадочное и неуловимое существо, ... 10 10 4
Торрент: Зарегистрирован [2018-10-10 10:23] · скачан: 119 раз
Статус: T временная
Размер: 3.12 GB
Как cкачать? Как скачать Похитители носков через торрент | qTorrent

% Раздел Тема Автор DL S | L
Зарубежные Мультфильмы (BDRip 1080p, 720p, Blu-ray, BD-Remux) [ 2.64 GB ] Похитители носков / Lichozrouti [2016 мультфильм WEBRip 1080p] 2x[Dub] killermax2013 Скачать
1 | 0
Иностранные мультфильмы [ 1.46 GB ] Похитители носков / Lichozrouti [2016 мультфильм WEB-DLRip] 2x[Dub] killermax2013 Скачать
2 | 0

28-11-2019 20:33  

Отключить всю рекламу на сайте


    Дорогой пользователь! Огромная просьба, поблагодарите релизера, оцените раздачу и оставьте свои комментарий, если Вы скачали Похитители носков через торрент бесплатно! Внесите свою лепту в развитие PiratBit!
    Комментировать посты могут только пользователи прошедшие не сложную регистрацию
    Показать сообщения:    

    Похитители носков через торрент
    Скачать бесплатно Похитители носков
    Похитители носков скачать торрент
    Похитители носков смотреть онлайн
    Cкачать фильм Похитители носков бесплатно
    Похитители носков скачать торрент в хорошем качестве
    Похитители носков смотреть онлайн бесплатно в хорошем качестве


    Вы не можете начинать темы
    Вы не можете отвечать на сообщения
    Вы не можете редактировать свои сообщения
    Вы не можете удалять свои сообщения
    Вы не можете голосовать в опросах
    Вы не можете прикреплять файлы к сообщениям
    Вы можете скачивать файлы