Ссылка на приватное зеркало всего за 1$. Внимание количество ограничено!!!

iTunes

iTunes

iTunes

1

iTunes

iTunes

iTunes

iTunes

iTunes

30
pack

$ от Little Big

ВАЖНО

!!Акция!!

Alien_RageХит недели

RePack

Resident Evil 21

ИГРА 18+

pack

RePack

jed

!!Акция!!

Alien_Rage

RePack

fifa19

RePack

Assassins Creed: Odyssey

RePack

NEED FOR SPEED™ PAYBACK

4 сезон

9 сезон

Бесстыжие 9 сезон

Все сериалы

все сериалы на PB.wtf

RePack

FAR CRY 5
  

Вторжение / Проникновение / Breaking In (Джеймс МакТиг) [2018, Боевик, триллер, драма, криминал, BDRip 720p] [Театральная версия] DUB [iTunes] pb.wtf

Вторжение через торрент pb.wtf

Размер: 4.24 GB | Добавлен: 1 год 9 мес. назад | Торрент скачан:135 раз
Скачать  

10-10-2018 11:40 Вторжение Скачать торрент  

Вторжение / Проникновение / Breaking In«Payback is a Mother»

Год выпуска: 2018
Страна: США
Жанр: Боевик, триллер, драма, криминал
Продолжительность: 01:28:01
Перевод: Дублированное | iTunes
Субтитры: Английские (полные)

Режиссер: Джеймс МакТиг

rating

В ролях:

Гэбриэл Юнион, Билли Бёрк, Ричард Кебрал, Аджиона Алексус, Леви Миден, Сет Карр, Марк Фурз, Джейсон Уинстон Джордж, Криста Миллер, Дэмиен Лик

Описание:

Мать с двумя детьми после смерти отца приезжает в уединённый дом, чтобы разобраться с делами усопшего. Особняк оборудован по последнему слову техники и готов к продолжительной осаде. Спокойствие нарушает группа бандитов, мечтающая добраться до миллионов, скрытых в хранилище особняка. Но никакие ловушки или непробиваемые двери не смогут остановить разъярённую мать, когда её детям грозит опасность.

Качество: BDRip 720p | Театральная версия
Формат: MKV

Видео: 1280x536 (2.40:1), 23,976 fps, x264 ~5 005 kbps avg, 0.304 bit/pixel
Аудио#1: AC3, 48 kHz, 6 ch, ~384.00 kbps avg | русский | iTunes
Аудио#2: DTS, 48 kHz, 6 ch, ~1509.00 kbps avg | английский | Оригинал
скриншот  скриншот  скриншот  скриншот  скриншот  

Общее
Уникальный идентификатор : 186071409922897867128500017229349611516 (0x8BFC0CCDE1642B73B93F1E9CF3D567FC)
Полное имя : F:OlLanDGroupBreaking.In.2018.x264.BDRip.(720p).OlLanDGroup.mkv
Формат : Matroska
Версия формата : Version 4 / Version 2
Размер файла : 4,24 Гбайт
Продолжительность : 1 ч. 28 м.
Общий поток : 6896 Кбит/сек
Название фильма : Вторжение.2018.Rip by: ollan
Дата кодирования : UTC 2018-10-09 18:35:32
Программа кодирования : mkvmerge v6.5.0 ('Isn't she lovely') built on Oct 20 2013 12:50:05
Библиотека кодирования : libebml v1.3.0 + libmatroska v1.4.1
Обложка : Yes
Attachments : Cover - Breaking.In.png

Видео
Идентификатор : 1
Формат : AVC
Формат/Информация : Advanced Video Codec
Профиль формата : High@L4.1
Параметр CABAC формата : Да
Параметр ReFrames формата : 9 кадров
Идентификатор кодека : V_MPEG4/ISO/AVC
Продолжительность : 1 ч. 28 м.
Битрейт : 5005 Кбит/сек
Ширина : 1280 пикселей
Высота : 536 пикселей
Соотношение сторон : 2,40:1
Режим частоты кадров : Постоянный
Частота кадров : 23,976 (24000/1001) кадра/сек
Цветовое пространство : YUV
Субдискретизация насыщенности : 4:2:0
Битовая глубина : 8 бит
Тип развёртки : Прогрессивная
Бит/(Пиксели*Кадры) : 0.304
Размер потока : 2,99 Гбайт (71%)
Библиотека кодирования : x264 core 146 r2538 121396c
Настройки программы : cabac=1 / ref=9 / deblock=1:-3:-3 / analyse=0x3:0x133 / me=umh / subme=11 / psy=1 / psy_rd=0.95:0.05 / mixed_ref=1 / me_range=64 / chroma_me=1 / trellis=2 / 8x8dct=1 / cqm=0 / deadzone=21,11 / fast_pskip=0 / chroma_qp_offset=-3 / threads=12 / lookahead_threads=3 / sliced_threads=0 / nr=0 / decimate=0 / interlaced=0 / bluray_compat=0 / constrained_intra=0 / bframes=10 / b_pyramid=2 / b_adapt=2 / b_bias=0 / direct=3 / weightb=1 / open_gop=0 / weightp=2 / keyint=240 / keyint_min=23 / scenecut=40 / intra_refresh=0 / rc_lookahead=40 / rc=2pass / mbtree=0 / bitrate=5005 / ratetol=1.0 / qcomp=0.60 / qpmin=0 / qpmax=69 / qpstep=4 / cplxblur=20.0 / qblur=0.5 / vbv_maxrate=50000 / vbv_bufsize=62500 / nal_hrd=none / filler=0 / ip_ratio=1.40 / pb_ratio=1.30 / aq=1:1.00
Язык : English
Default : Да
Forced : Нет

Аудио #1
Идентификатор : 2
Формат : AC-3
Формат/Информация : Audio Coding 3
Расширение режима : CM (complete main)
Параметр Endianness формата : Big
Идентификатор кодека : A_AC3
Продолжительность : 1 ч. 28 м.
Вид битрейта : Постоянный
Битрейт : 384 Кбит/сек
Каналы : 6 каналов
Расположение каналов : Front: L C R, Side: L R, LFE
Частота : 48,0 КГц
Частота кадров : 31,250 кадров/сек (1536 spf)
Битовая глубина : 16 бит
Метод сжатия : С потерями
Размер потока : 242 Мбайт (6%)
Заголовок : iTunes
Язык : Russian
Default : Да
Forced : Нет

Аудио #2
Идентификатор : 3
Формат : DTS
Формат/Информация : Digital Theater Systems
Режим : 16
Параметр Endianness формата : Big
Идентификатор кодека : A_DTS
Продолжительность : 1 ч. 28 м.
Вид битрейта : Постоянный
Битрейт : 1509 Кбит/сек
Каналы : 6 каналов
Расположение каналов : Front: L C R, Side: L R, LFE
Частота : 48,0 КГц
Частота кадров : 93,750 кадра/сек (512 spf)
Битовая глубина : 24 бит
Метод сжатия : С потерями
Размер потока : 950 Мбайт (22%)
Язык : English
Default : Нет
Forced : Нет

Текст
Идентификатор : 4
Формат : UTF-8
Идентификатор кодека : S_TEXT/UTF8
Идентификатор кодека/Информация : UTF-8 Plain Text
Заголовок : Full
Язык : English
Default : Нет
Forced : Нет

Меню
00:00:00.000 : en:Chapter 01
00:05:16.231 : en:Chapter 02
00:10:03.727 : en:Chapter 03
00:14:04.592 : en:Chapter 04
00:17:30.089 : en:Chapter 05
00:21:44.970 : en:Chapter 06
00:25:34.865 : en:Chapter 07
00:31:09.032 : en:Chapter 08
00:36:50.247 : en:Chapter 09
00:40:48.069 : en:Chapter 10
00:44:20.323 : en:Chapter 11
00:50:27.689 : en:Chapter 12
00:54:23.885 : en:Chapter 13
01:00:17.572 : en:Chapter 14
01:04:23.358 : en:Chapter 15
01:09:53.396 : en:Chapter 16
01:13:10.886 : en:Chapter 17
01:16:16.070 : en:Chapter 18
01:20:52.264 : en:Chapter 19
01:25:26.121 : en:Chapter 20
01:28:01.484 : en:Chapter 21

pb.wtf



Скачать Вторжение через торрент https://i100.fastpic.ru/big/2018/0804/0f/011308f7649581464832638052a0b30f.jpg Скачать фильм Вторжение через торрент бесплантно в хорошем качестве Описание: Мать с двумя детьми после смерти отца приезжает в уединённый дом, чтобы разобраться с делами усопшего. Особняк оборудован по ... 9.3 10 8
Торрент: Зарегистрирован [2018-10-10 11:40] · скачан: 135 раз
Статус: √ проверено
Размер: 4.24 GB
Как cкачать? Как скачать Вторжение через торрент | qTorrent

% Раздел Тема Автор DL S | L
Фильмы 2018 [DVDrip, WEB-DLRip, HDrip] (DUB, MVO) [ 1.42 GB ] Вторжение / Проникновение / Breaking In [2018 BDRip] - Twi7ter Скачать
1 | 0
Фильмы 2018 [DVDrip, WEB-DLRip, HDrip] (DUB, MVO) [ 1.51 GB ] Вторжение / Проникновение / Breaking In [2018 BDRip-AVC] - - ExKinoRay Enigma2010 Скачать
1 | 0
Фильмы (Blu-ray, BD-Remux, HDDVD) [ 16.68 GB ] Вторжение / Breaking In [2018 BD Remux ] [Театральная версия] Бумер Скачать
1 | 0
Фильмы 2018 [DVDrip, WEB-DLRip, HDrip] (DUB, MVO) [ 1.42 GB ] Вторжение / Проникновение / Breaking In [2018 BDRip] [Театральная версия] bober100 Скачать
1 | 0
Фильмы [HD 720p, 1080p] (Хороший звук DUB, MVO) [ 7.74 GB ] Вторжение / Проникновение / Breaking In [2018 BDRip 1080p] [Театральная версия] bober100 Скачать
1 | 0
T Ultra HD (UHD: 2K, 4K, 8K) — видео сверхвысокой чёткости [ 11.79 GB ] Вторжение / Проникновение / Breaking In [2018 UHD WEBRip 2160p] MVO [HDRezka Studio] sheker187 Скачать
1 | 0

28-11-2019 20:33  

Отключить всю рекламу на сайте

19-10-2018 17:27 Вторжение Скачать торрент  

Мне нравился в своем время аналогpb.wtf



    Дорогой пользователь! Огромная просьба, поблагодарите релизера, оцените раздачу и оставьте свои комментарий, если Вы скачали Вторжение через торрент бесплатно! Внесите свою лепту в развитие PiratBit!
    Комментировать посты могут только пользователи прошедшие не сложную регистрацию
    Показать сообщения:    

    Вторжение через торрент
    Скачать бесплатно Вторжение
    Вторжение скачать торрент
    Вторжение смотреть онлайн
    Cкачать фильм Вторжение бесплатно
    Вторжение скачать торрент в хорошем качестве
    Вторжение смотреть онлайн бесплатно в хорошем качестве


    Вы не можете начинать темы
    Вы не можете отвечать на сообщения
    Вы не можете редактировать свои сообщения
    Вы не можете удалять свои сообщения
    Вы не можете голосовать в опросах
    Вы не можете прикреплять файлы к сообщениям
    Вы можете скачивать файлы