Ссылка на приватное зеркало нашего сайта всего за 1$. Внимание количество ограничено!!!

2 сезон

iTunes

1 сезон

1

2 сезон

2 сезон

iTunes

1 сезон

RePack

30

Ultimate

ВАЖНО

ИГРА 18+

pack

RePack

MK11
pack

Забери бонус

RePack

jed

!!Акция!!

Alien_Rage

RePack

fifa19

RePack

Assassins Creed: Odyssey

RePack

NEED FOR SPEED™ PAYBACK

4 сезон

9 сезон

Бесстыжие 9 сезон

Все сериалы

все сериалы на PB.wtf

RePack

FAR CRY 5
  

Доктор Кто / Doctor Who / Сезон: 11 / Серии: 0-10 из 10 (Стивен Моффат) [2017-2018, Приключения, фантастика, комедия, WEB-DL 1080p] MVO [Jaskier] pb.wtf

Доктор Кто через торрент pb.wtf

Размер: 25.42 GB | Добавлен: 1 год 11 мес. назад | Торрент скачан:16 раз
Скачать  

10-10-2018 11:59 Доктор Кто Скачать торрент  

Доктор Кто | Doctor Who • Год выпуска: 2017-2018
• Страна: Великобритания
• Жанр: приключения, фантастика, комедия
• Продолжительность: ~ 01:08:00
• Перевод: Профессиональный (многоголосый закадровый) | Jaskier
• Субтитры: английские

• Режиссёр: Бен Уитли, Пол Мёрфи, Даглас Маккиннон, Пол Уилмсхёрст

• В ролях:

Питер Капальди, Мэтт Лукас, Джастин Чэтвин и др.

• Описание:

Сериал отображает приключения мистического инопланетянина-гуманоида называющего себя Доктор, без цели путешествующего через время и пространство в космическом корабле, который снаружи выглядит как полицейская будка 50-х годов. Доктор чрезвычайно эксцентричен и имеет невероятные знания в областях технологии, истории и науки. Он путешествует вместе со своими компаньонами, попутно борясь против космических злодеев и спасая Землю от бесчисленных врагов.

rating

Качество: WEB-DL 1080p
Формат: MKV

Видео: 1920x960, 1920x1080, (16:9) | X264/MPEG4-AVC | ~6000 kbps | 25 fps
Аудио 1: AC3 | 48 KHz | 5.1 (Front: L С R Side: L R) + LFE | ~384 kbps [RUS]
Аудио 2: AC3 | 48 KHz | 5.1 (Front: L С R Side: L R) + LFE | ~384 kbps [ENG]


Реклама: Присутствует звуковая (два раза в начале и конце по 10 сек.)
Переведено и озвучено студией JASKIER
скриншот  скриншот  скриншот  
Общее
Уникальный идентификатор                 : 238835975945863467380788868056450754527 (0xB3AE22C2F1A786B99887F980D4B667DF)
Полное имя                               : D:\Яскъер\Doctor Who. Season 11 (WEBRip l 1080p l Jaskier)\Doctor.Who.S11E00.1080p.AMZN.WEBRip.DDP5.1.x264-Jaskier.mkv
Формат                                   : Matroska
Версия формата                           : Version 2
Размер файла                             : 3,82 Гбайт
Продолжительность                        : 59 м. 58 с.
Режим общего битрейта                    : Переменный
Общий поток                              : 9127 Кбит/сек
Дата кодирования                         : UTC 2017-12-30 12:15:58
Программа кодирования                    : mkvmerge v7.8.0 ('River Man') 32bit built on Apr  3 2015 12:11:22
Библиотека кодирования                   : libebml v1.3.1 + libmatroska v1.4.2

Видео
Идентификатор                            : 1
Формат                                   : AVC
Формат/Информация                        : Advanced Video Codec
Профиль формата                          : High@L4
Настройки формата                        : CABAC / 4 Ref Frames
Параметр CABAC формата                   : Да
Параметр RefFrames формата               : 4 кадра
Идентификатор кодека                     : V_MPEG4/ISO/AVC
Продолжительность                        : 59 м. 58 с.
Вид битрейта                             : Переменный
Битрейт                                  : 8177 Кбит/сек
Максимальный битрейт                     : 15,0 Мбит/сек
Ширина                                   : 1920 пикселей
Высота                                   : 1080 пикселей
Соотношение сторон                       : 16:9
Режим частоты кадров                     : Постоянный
Частота кадров                           : 25,000 кадров/сек
Цветовое пространство                    : YUV
Субдискретизация насыщенности            : 4:2:0
Битовая глубина                          : 8 бит
Тип развёртки                            : Прогрессивная
Бит/(Пиксели*Кадры)                      : 0.158
Размер потока                            : 3,43 Гбайт (90%)
Язык                                     : English
Default                                  : Да
Forced                                   : Нет
Цветовой диапазон                        : Limited
Основные цвета                           : BT.709
Характеристики трансфера                 : BT.709
Коэффициенты матрицы                     : BT.709

Аудио #1
Идентификатор                            : 2
Формат                                   : AC-3
Формат/Информация                        : Audio Coding 3
Идентификатор кодека                     : A_AC3
Продолжительность                        : 59 м. 58 с.
Вид битрейта                             : Постоянный
Битрейт                                  : 384 Кбит/сек
Каналы                                   : 6 каналов
Расположение каналов                     : Front: L C R, Side: L R, LFE
Частота                                  : 48,0 КГц
Частота кадров                           : 31,250 кадров/сек (1536 SPF)
Битовая глубина                          : 16 бит
Метод сжатия                             : С потерями
Размер потока                            : 165 Мбайт (4%)
Заголовок                                : Jaskier
Язык                                     : Russian
ServiceKind/String                       : Complete Main
Default                                  : Да
Forced                                   : Нет

Аудио #2
Идентификатор                            : 3
Формат                                   : AC-3
Формат/Информация                        : Audio Coding 3
Идентификатор кодека                     : A_AC3
Продолжительность                        : 59 м. 58 с.
Вид битрейта                             : Постоянный
Битрейт                                  : 384 Кбит/сек
Каналы                                   : 6 каналов
Расположение каналов                     : Front: L C R, Side: L R, LFE
Частота                                  : 48,0 КГц
Частота кадров                           : 31,250 кадров/сек (1536 SPF)
Битовая глубина                          : 16 бит
Метод сжатия                             : С потерями
Размер потока                            : 165 Мбайт (4%)
Язык                                     : English
ServiceKind/String                       : Complete Main
Default                                  : Нет
Forced                                   : Нет

Текст
Идентификатор                            : 4
Формат                                   : UTF-8
Идентификатор кодека                     : S_TEXT/UTF8
Идентификатор кодека/Информация          : UTF-8 Plain Text
Язык                                     : English
Default                                  : Нет
Forced                                   : Нет
Общее
Уникальный идентификатор                 : 180511982914112688031384588496965838106 (0x87CD57E3EAF9661FA21C2AED1D75A51A)
Полное имя                               : D:\Яскъер\Doctor Who. Season 11 (WEB-DL l 1080p l Jaskier)\Doctor.Who.S11E01.1080p.AMZN.WEB-DL.DDP5.1.x264-Jaskier.mkv
Формат                                   : Matroska
Версия формата                           : Version 2
Размер файла                             : 2,39 Гбайт
Продолжительность                        : 1 ч. 3 м.
Общий поток                              : 5408 Кбит/сек
Дата кодирования                         : UTC 2018-10-10 11:10:49
Программа кодирования                    : mkvmerge v7.8.0 ('River Man') 32bit built on Apr  3 2015 12:11:22
Библиотека кодирования                   : libebml v1.3.1 + libmatroska v1.4.2

Видео
Идентификатор                            : 1
Формат                                   : AVC
Формат/Информация                        : Advanced Video Codec
Профиль формата                          : High@L4
Настройки формата                        : CABAC / 4 Ref Frames
Параметр CABAC формата                   : Да
Параметр RefFrames формата               : 4 кадра
Идентификатор кодека                     : V_MPEG4/ISO/AVC
Продолжительность                        : 1 ч. 3 м.
Битрейт                                  : 4532 Кбит/сек
Ширина                                   : 1920 пикселей
Высота                                   : 960 пикселей
Соотношение сторон                       : 2,000
Режим частоты кадров                     : Постоянный
Частота кадров                           : 25,000 кадров/сек
Цветовое пространство                    : YUV
Субдискретизация насыщенности            : 4:2:0
Битовая глубина                          : 8 бит
Тип развёртки                            : Прогрессивная
Бит/(Пиксели*Кадры)                      : 0.098
Размер потока                            : 2,00 Гбайт (84%)
Язык                                     : English
Default                                  : Да
Forced                                   : Нет
Цветовой диапазон                        : Limited
Основные цвета                           : BT.709
Характеристики трансфера                 : BT.709
Коэффициенты матрицы                     : BT.709

Аудио #1
Идентификатор                            : 2
Формат                                   : AC-3
Формат/Информация                        : Audio Coding 3
Коммерческое название                    : Dolby Digital
Идентификатор кодека                     : A_AC3
Продолжительность                        : 1 ч. 3 м.
Вид битрейта                             : Постоянный
Битрейт                                  : 384 Кбит/сек
Каналы                                   : 6 каналов
Channel layout                           : L R C LFE Ls Rs
Частота                                  : 48,0 КГц
Частота кадров                           : 31,250 кадров/сек (1536 SPF)
Битовая глубина                          : 16 бит
Метод сжатия                             : С потерями
Размер потока                            : 174 Мбайт (7%)
Заголовок                                : Jaskier
Язык                                     : Russian
ServiceKind/String                       : Complete Main
Default                                  : Да
Forced                                   : Нет

Аудио #2
Идентификатор                            : 3
Формат                                   : AC-3
Формат/Информация                        : Audio Coding 3
Коммерческое название                    : Dolby Digital
Идентификатор кодека                     : A_AC3
Продолжительность                        : 1 ч. 3 м.
Вид битрейта                             : Постоянный
Битрейт                                  : 384 Кбит/сек
Каналы                                   : 6 каналов
Channel layout                           : L R C LFE Ls Rs
Частота                                  : 48,0 КГц
Частота кадров                           : 31,250 кадров/сек (1536 SPF)
Битовая глубина                          : 16 бит
Метод сжатия                             : С потерями
Размер потока                            : 174 Мбайт (7%)
Язык                                     : English
ServiceKind/String                       : Complete Main
Default                                  : Нет
Forced                                   : Нет

Текст
Идентификатор                            : 4
Формат                                   : UTF-8
Идентификатор кодека                     : S_TEXT/UTF8
Идентификатор кодека/Информация          : UTF-8 Plain Text
Язык                                     : English
Default                                  : Нет
Forced                                   : Нет
Когда раздача ведётся путём добавления новых серий, при каждом добавлении создётся новый торрент. Чтобы начать докачку новой серии, пользователям необходимо сделать следующее:
(1) остановить скачивание,
(2) удалить старый торрент у себя из клиента (старые серии удалять не надо),
(3) скачать новый торрент и запустить его у себя в клиенте вместо старого, при этом указать клиенту путь в старую папку, куда и должно происходить скачивание новых серий.
Ваш клиент при этом должен произвести хеширование (проверку) старой папки (если не производит сам - помогите ему сделать это), и будет докачивать только те серии, которых у вас ещё нет. Старые серии при этом не удаляются, а продолжают раздаваться!
Eсли вы уже удалили старые серии, то предотвратить повторную закачку старых серий можно, отжав галочку в соответсвующих местах при запуске нового торрента. По возможности, желательно не удалять старые серии как можно дольше, чтобы релизёр не столько продолжал раздавать старые серии, а смог сконцентрироваться на новых.
pb.wtf



Скачать Доктор Кто через торрент http://img10.lostpic.net/2018/10/09/72094d89d4a37feb3051221257eef6cd.png Скачать фильм Доктор Кто через торрент бесплантно в хорошем качестве Описание: Сериал отображает приключения мистического инопланетянина-гуманоида называющего себя Доктор, без цели путешествующего через время ... 10 10 4
Торрент: Зарегистрирован [2018-12-28 15:14] · скачан: 16 раз
Статус: √ проверено
Размер: 25.42 GB
Как cкачать? Как скачать Доктор Кто через торрент | qTorrent

% Раздел Тема Автор DL S | L
Зарубежные сериалы [ 10.79 GB ] Доктор Кто / Doctor Who / Сезон: 11 / Серия: 0-10 из 10 [2017 WEBRip 720p] MVO [Good People] bober100 Скачать
1 | 0
Зарубежные сериалы [ 7.08 GB ] Доктор Кто / Doctor Who / Сезон: 11 / Серии: 0-10 из 10 [2017 WEBRip] MVO [Good People] bober100 Скачать
1 | 0
Зарубежные сериалы [ 7.08 GB ] Доктор Кто / Doctor Who / Сезон: 11 / Серии: 0-10 из 10 [2017-2018 WEB-DLRip] MVO [Jaskier] bober100 Скачать
1 | 0

28-11-2019 20:33  

Отключить всю рекламу на сайте

28-12-2018 15:20 Доктор Кто Скачать торрент  

Это уже далеко не Стивен Моффат. Последний сезон настолько ужасен, что хочется сделать вид, что его просто не было.pb.wtf



    Дорогой пользователь! Огромная просьба, поблагодарите релизера, оцените раздачу и оставьте свои комментарий, если Вы скачали Доктор Кто через торрент бесплатно! Внесите свою лепту в развитие PiratBit!
    Комментировать посты могут только пользователи прошедшие не сложную регистрацию
    Показать сообщения:    

    Доктор Кто через торрент
    Скачать бесплатно Доктор Кто
    Доктор Кто скачать торрент
    Доктор Кто смотреть онлайн
    Cкачать фильм Доктор Кто бесплатно
    Доктор Кто скачать торрент в хорошем качестве
    Доктор Кто смотреть онлайн бесплатно в хорошем качестве


    Вы не можете начинать темы
    Вы не можете отвечать на сообщения
    Вы не можете редактировать свои сообщения
    Вы не можете удалять свои сообщения
    Вы не можете голосовать в опросах
    Вы не можете прикреплять файлы к сообщениям
    Вы можете скачивать файлы