Ссылка на приватное зеркало всего за 1$. Внимание количество ограничено!!!

OK

1+1

iTunes

мы

OK

1

WEB-DLRip

Джокер

Пифагор

Ведьмак / The Witcher сериал

iTunes

ПШазам

ОК

Оно 2

iTunes

30
pack

Вам бонус

ВАЖНО

!!Акция!!

Alien_RageХит недели

RePack

Resident Evil 21

ИГРА 18+

pack

RePack

jed

RePack

fifa19

RePack

Assassins Creed: Odyssey

RePack

NEED FOR SPEED™ PAYBACK

4 сезон

9 сезон

Бесстыжие 9 сезон

Все сериалы

все сериалы на PB.wtf

RePack

FAR CRY 5
  

Меж двух миров / Between Worlds (Мария Пулера) [2018, Боевик, триллер, детектив, BDRip 720p] MVO [@MUZOBOZ@] pb.wtf

Меж двух миров через торрент pb.wtf

Размер: 4.47 GB | Добавлен: 1 год 3 мес. назад | Торрент скачан:72 раза
Скачать  

10-10-2018 17:57 Меж двух миров Скачать торрент  

Меж двух миров / Between WorldsГод выпуска: 2018
Страна: Испания
Жанр: Боевик, триллер, детектив
Продолжительность: 01:33:00
Перевод: Любительский (многоголосый) | @MUZOBOZ@
Субтитры: отсутствуют

Режиссер: Мария Пулера

rating

В ролях:

Николас Кейдж, Лидия Хёрст, Франка Потенте, Пенелопа Митчелл, Гарретт Клэйтон, Хоппер Пенн, Дэвид Ли Смит, Бриттани Шоу, Филип Форнах, Том Уильямс

Описание:

Когда в жизни Джо произошла трагедия и он потерял жену и дочь, то был готов пойти на все, чтобы вернуть их к жизни. После встречи с Джулией, которая умеет вызывать умерших, он обретает надежду на то, что это возможно, однако в его жизни начинает происходить нечто странное, он сталкивается с мистическими явлениями и со злом, не желающим просто так уходить.

Качество: BDRip 720p
Формат: MKV

Видео: h.264,6 430 kb/s, 1280x690
Аудио#1: Русский (AC3, 2 ch, 448 Кбит/с)
скриншот  скриншот  скриншот  

Общее
Уникальный идентификатор : 224417263400969337722853137805457124865 (0xA8D53158DBFFF9BDACE6F00B30626E01)
Полное имя : D:\Between.Worlds.2018.P.BDRip.72Op_KOSHARA.mkv
Формат : Matroska
Версия формата : Version 2
Размер файла : 4,47 Гбайт
Продолжительность : 1 ч. 33 м.
Режим общего битрейта : Переменный
Общий поток : 6880 Кбит/сек
Дата кодирования : UTC 2018-10-10 09:17:35
Программа кодирования : mkvmerge v8.3.0 ('Over the Horizon') 64bit
Библиотека кодирования : libebml v1.3.1 + libmatroska v1.4.2

Видео
Идентификатор : 1
Формат : AVC
Формат/Информация : Advanced Video Codec
Профиль формата : High@L4.1
Параметр CABAC формата : Да
Параметр RefFrames формата : 4 кадра
Идентификатор кодека : V_MPEG4/ISO/AVC
Продолжительность : 1 ч. 33 м.
Вид битрейта : Переменный
Битрейт : 6430 Кбит/сек
Максимальный битрейт : 7500 Кбит/сек
Ширина : 1280 пикселей
Высота : 690 пикселей
Соотношение сторон : 1,85:1
Режим частоты кадров : Постоянный
Частота кадров : 23,976 (24000/1001) кадра/сек
Стандарт вещания : Component
Цветовое пространство : YUV
Субдискретизация насыщенности : 4:2:0
Битовая глубина : 8 бит
Тип развёртки : Прогрессивная
Бит/(Пиксели*Кадры) : 0.297
Размер потока : 4,09 Гбайт (91%)
Default : Да
Forced : Нет
Цветовой диапазон : Limited
Основные цвета : BT.709
Характеристики трансфера : BT.709
Коэффициенты матрицы : BT.709

Аудио
Идентификатор : 2
Формат : AC-3
Формат/Информация : Audio Coding 3
Расширение режима : CM (complete main)
Параметр Endianness формата : Big
Идентификатор кодека : A_AC3
Продолжительность : 1 ч. 33 м.
Вид битрейта : Постоянный
Битрейт : 448 Кбит/сек
Каналы : 2 канала
Расположение каналов : Front: L R
Частота : 48,0 КГц
Частота кадров : 31,250 кадров/сек (1536 spf)
Метод сжатия : С потерями
Размер потока : 298 Мбайт (7%)
Default : Да
Forced : Нет

pb.wtf



Скачать Меж двух миров через торрент https://c.radikal.ru/c36/1810/29/6e1ff81822d5.jpg Скачать фильм Меж двух миров через торрент бесплантно в хорошем качестве Описание: Когда в жизни Джо произошла трагедия и он потерял жену и дочь, то был готов пойти на все, чтобы вернуть их к жизни. После встречи ... 10 10 3
Торрент: Зарегистрирован [2018-10-10 17:57] · скачан: 72 раз
Статус: # сомнительно
Размер: 4.47 GB
Как cкачать? Как скачать Меж двух миров через торрент | qTorrent

% Раздел Тема Автор DL S | L
# Фильмы (мультфильмы) cо спонсором показа (Новинки AVI/MKV) [ 7.61 GB ] Меж двух миров / Between Worlds [2018 BDRip 1080p] MVO [@MUZOBOZ@] bober100 Скачать
1 | 0
T Фильмы (мультфильмы) cо спонсором показа (Новинки AVI/MKV) [ 1.37 GB ] Меж двух миров / Between Worlds [2018 HDRip] MVO [@MUZOBOZ@] bober100 Скачать
1 | 0

28-11-2019 20:33  

Отключить всю рекламу на сайте

    Дорогой пользователь! Огромная просьба, поблагодарите релизера, оцените раздачу и оставьте свои комментарий, если Вы скачали Меж двух миров через торрент бесплатно! Внесите свою лепту в развитие PiratBit!
    Комментировать посты могут только пользователи прошедшие не сложную регистрацию
    Показать сообщения:    

    Меж двух миров через торрент
    Скачать бесплатно Меж двух миров
    Меж двух миров скачать торрент
    Меж двух миров смотреть онлайн
    Cкачать фильм Меж двух миров бесплатно
    Меж двух миров скачать торрент в хорошем качестве
    Меж двух миров смотреть онлайн бесплатно в хорошем качестве


    Вы не можете начинать темы
    Вы не можете отвечать на сообщения
    Вы не можете редактировать свои сообщения
    Вы не можете удалять свои сообщения
    Вы не можете голосовать в опросах
    Вы не можете прикреплять файлы к сообщениям
    Вы можете скачивать файлы