новый адрес
Ссылка на приватное зеркало всего за 1$. Внимание количество ограничено!!!

iTunes

1+1

iTunes

мы

WEB-DL

1

iTunes

Чернобыль

iTunes

Ральф против интернета

Лицензия

ПШазам

Лицензия

Оно 2

Лицензия

30
pack

Вам бонус

ВАЖНО

!!Акция!!

Alien_RageХит недели

RePack

Resident Evil 21

ИГРА 18+

pack

RePack

jed

!!Акция!!

Alien_Rage

RePack

fifa19

RePack

Assassins Creed: Odyssey

RePack

NEED FOR SPEED™ PAYBACK

3 сезон

9 сезон

Бесстыжие 9 сезон

Все сериалы

все сериалы на PB.wtf

RePack

FAR CRY 5
Ребята, катастрофически не хватает 1900р. для оплаты серверов за Октябрь (всвязи с блокировками трафик упал в 3 раза), 1-2р., выручайте.
  

Коллекторы / The Debt Collector (Джесси Джонсон) [2018 г., боевик, HDRip, Дубляж "iTunes"] pb.wtf

Коллекторы через торрент pb.wtf

Раздают: 2 [ 0 KB/s ]
Размер: 710 MB | Добавлен: 1 год 1 мес. назад | Торрент скачан:348 раз
Скачать  

10-10-2018 18:36 Коллекторы Скачать торрент  

Коллекторы / The Debt Collector
Год выпуска: 2018
Страна: Великобритания, США / Tarzana Productions,Cohesive Entertainment Group (CEG),Compound B
Жанр: боевик
Продолжительность: 01:35:55
Перевод: Дубляж (iTunes)

Режиссер: Джесси Джонсон

rating

В ролях: Скотт Эдкинс, Луис Мэндилор, Владимир Кулих, Тони Тодд, Селина Ло, Рустик Бодомов, Алекса Бондарь, Rachel Brann, Kasmira Buchanan, Danice Cabanela

Описание: Небольшая бойцовская школа, которой управляет мастер боевых искусств по имени Фрэнч, переживает не лучшие времена. Чтобы решить материальные проблемы, Фрэнч на время оставляет спортивную карьеру и нанимается коллектором к криминальному авторитету Большому Томми. Такая работа ему по плечу и по нраву, и он с напарником с азартом метелит должников босса. Пока крутой гангстер из Лос-Анджелеса не поручает им найти любовника его жены, и парни сталкиваются с проблемой, которую дракой не решить...

Качество: HDRip
Формат: AVI
Видео кодек: XviD
Аудио кодек: MP3
Видео: 640x272 (2.35:1), 23.976 fps, XviD build 50 ~897 kbps avg, 0.22 bit/pixel
Аудио: 48 kHz, MPEG Layer 3, 2 ch, ~128.00 kbps avg
скриншот   скриншот   скриншот   скриншот  

Общее
Полное имя : F:\ФИЛЬМЫ\Коллекторы.2018.D.HDRip.avi
Формат : AVI
Формат/Информация : Audio Video Interleave
Размер файла : 710 Мбайт
Продолжительность : 1 ч. 35 м.
Общий поток : 1035 Кбит/сек
Программа кодирования : VirtualDubMod 1.5.10.3 | www.virtualdub-fr.org || (build 2550/release)
Библиотека кодирования : VirtualDubMod build 2550/release

Видео
Идентификатор : 0
Формат : MPEG-4 Visual
Профиль формата : Advanced Simple@L5
Настройки формата : BVOP2
Параметр BVOP формата : 2
Параметр QPel формата : Нет
Параметр GMC формата : Без точки перехода
Параметр матрицы формата : Default (MPEG)
Идентификатор кодека : XVID
Идентификатор кодека/Подсказка : XviD
Продолжительность : 1 ч. 35 м.
Битрейт : 897 Кбит/сек
Ширина : 640 пикселей
Высота : 272 пикселя
Соотношение сторон : 2,35:1
Частота кадров : 23,976 (24000/1001) кадра/сек
Цветовое пространство : YUV
Субдискретизация насыщенности : 4:2:0
Битовая глубина : 8 бит
Тип развёртки : Прогрессивная
Метод сжатия : С потерями
Бит/(Пиксели*Кадры) : 0.215
Размер потока : 616 Мбайт (87%)
Библиотека кодирования : XviD 1.2.1 (UTC 2008-12-04)

Аудио
Идентификатор : 1
Формат : MPEG Audio
Версия формата : Version 1
Профиль формата : Layer 3
Настройки формата : Joint stereo / MS Stereo
Идентификатор кодека : 55
Идентификатор кодека/Подсказка : MP3
Продолжительность : 1 ч. 35 м.
Вид битрейта : Постоянный
Битрейт : 128 Кбит/сек
Каналы : 2 канала
Частота : 48,0 КГц
Частота кадров : 41,667 кадра/сек (1152 SPF)
Метод сжатия : С потерями
Размер потока : 87,8 Мбайт (12%)
Выравнивание : Соединение по промежуткам
Продолжительность промежутка : 42 мс. (1,00 видеокадр)
Время предзагрузки промежутка : 504 мс.
Библиотека кодирования : LAME3.99r
Настройки программы : -m j -V 4 -q 2 -lowpass 17 -b 128

pb.wtf



Скачать Коллекторы через торрент http://pic1.kartinco.top/images/11/picmz.jpg Скачать фильм Коллекторы через торрент бесплантно в хорошем качестве Описание: Небольшая бойцовская школа, которой управляет мастер боевых искусств по имени Фрэнч, переживает не лучшие времена. Чтобы решить ... 9.2 10 11
Info! Золотая раздача, скачанное не засчитывается.
Торрент: Зарегистрирован [2018-10-10 18:36] · скачан: 348 раз
Статус: √ проверено
Размер: 710 MB
Как cкачать? Как скачать Коллекторы через торрент | qTorrent

% Раздел Тема Автор DL S | L
Фильмы 2018 [DVDrip, WEB-DLRip, HDrip] (DUB, MVO) [ 1.42 GB ] Коллекторы / The Debt Collector [2018 BDRip] - Twi7ter Скачать
5 | 0
Фильмы [HD 720p, 1080p] (Хороший звук DUB, MVO) [ 3.38 GB ] Коллекторы / The Debt Collector [2018 BDRip 720p] bober100 Скачать
1 | 0
Фильмы 2018 [DVDrip, WEB-DLRip, HDrip] (DUB, MVO) [ 1.78 GB ] Коллекторы / The Debt Collector [2018 BDRip-AVC] - ExKinoRay Enigma2010 Скачать
3 | 0
Фильмы 2018 [DVDrip, WEB-DLRip, HDrip] (DUB, MVO) [ 1.42 GB ] Коллекторы / The Debt Collector [2018 BDRip] bober100 Скачать
2 | 0
Фильмы (Blu-ray, BD-Remux, HDDVD) [ 17.11 GB ] Коллекторы / The Debt Collector [2018 BD Remux 1080p] bober100 Скачать
1 | 0
Фильмы [HD 720p, 1080p] (Хороший звук DUB, MVO) [ 7.24 GB ] Коллекторы / The Debt Collector [2018 BDRip 1080p] bober100 Скачать
2 | 0

28-11-2019 20:33  

Отключить всю рекламу на сайте

11-10-2018 14:09 Коллекторы Скачать торрент  

норм фильм,только не ожидал что концовка будет такойpb.wtf



    Дорогой пользователь! Огромная просьба, поблагодарите релизера, оцените раздачу и оставьте свои комментарий, если Вы скачали Коллекторы через торрент бесплатно! Внесите свою лепту в развитие PiratBit!
    Комментировать посты могут только пользователи прошедшие не сложную регистрацию
    Показать сообщения:    

    Коллекторы через торрент
    Скачать бесплатно Коллекторы
    Коллекторы скачать торрент
    Коллекторы смотреть онлайн
    Cкачать фильм Коллекторы бесплатно
    Коллекторы скачать торрент в хорошем качестве
    Коллекторы смотреть онлайн бесплатно в хорошем качестве


    Вы не можете начинать темы
    Вы не можете отвечать на сообщения
    Вы не можете редактировать свои сообщения
    Вы не можете удалять свои сообщения
    Вы не можете голосовать в опросах
    Вы не можете прикреплять файлы к сообщениям
    Вы можете скачивать файлы