2 сезон

iTunes

MVO

1

2 сезон

iTunes

iTunes

1 сезон

RePack

30

Ultimate

ВАЖНО

ИГРА 18+

pack

RePack

MK11
pack

Легкие деньги

RePack

jed

RePack

fifa19

RePack

RDR2

RePack

NEED FOR SPEED™ PAYBACK

4 сезон

9 сезон

Бесстыжие 9 сезон

Все сериалы

все сериалы на PB.wtf

RePack

FAR CRY 5

Anonymous, доброй ночи, мы не успеваем собрать деньги на оплату серверов за декабрь и январь, помогите нам пожалуйста в это трудное время. В качестве благодарности мы отключим Вам всю рекламу на сайте (укажите свой ник в строку Ваше имя)!

×
  
Magnet ссылка

Небоскреб в 3Д / Skyscraper 3D (Роусон Маршалл Тёрбер / Rawson Marshall Thurber) [2018, боевик, триллер, BDRip, 1080p] OverUnder / Вертикальная стереопара pb.wtf

Небоскреб в 3Д через торрент pb.wtf

Размер: 19.53 GB | Добавлен: 2 года 2 мес. назад | Торрент скачан:57 раз
Скачать  

11-10-2018 06:36 Небоскреб в 3Д Скачать торрент  

Небоскреб / Skyscraper

Год выпуска: 2018
Страна: США (Legendary Pictures, Flynn Picture Company, Seven Bucks Productions, Universal Pictures)
Жанр: боевик, триллер
Продолжительность: 01:42:24

Перевод: Профессиональный дублированный(лицензия)
Русские субтитры: нет
Режиссер: Роусон Маршалл Тёрбер / Rawson Marshall Thurber

В ролях: Дуэйн Джонсон, Нив Кэмпбелл, Чинь Хань, Роланд Мюллер, Ноа Тейлор, Байрон Манн, Пабло Шрайбер, МакКенна Робертс, Ной Коттрелл, Ханна Куинливан

Описание: Самый высокий и технологичный небоскрёб в мире становится центром огненной катастрофы. Только бывший агент ФБР, а теперь эксперт по безопасности Уилл Сойер может спасти вертикальный город под небесами. Когда нельзя доверять никому, а жизнь семьи в опасности, каждая секунда на счету.

Сэмпл: http://sendfile.su/1451448

Качество: BDrip, 1080p
Контейнер: MKV
Формат 3D: OverUnder / Вертикальная стереопара
Порядок ракурсов: левый ракурс первый
Видео кодек: x264
Аудио кодек: AC3
Видео: AVC / High@L5.0 / 23,976 fps / 1920х2160 / 25,7 Мбит/сек
Аудио: Русский / AC3 / 48 KHz / 5.1 ch / 640 Кбит/сек(лицензия)
Аудио 2: Английский / AC3 / 48 KHz / 5.1 ch / 448 Кбит/сек

ВНИМАНИЕ ! На встроенных ТВ-плеерах работать не будет!!!

ТВ Samsung в названии которого есть надпись Ultra HD , и LG Ultra HD 800 серии, LG C6P, Xiaomi Mi TV 2 воспроизводят полные стереопары встроенными плеерами
Железные плееры на которых воспроизводятся полные стереопары:Popcorn C-200 , Dune HD Smart D1 , Dune HD DUO , Dune HD Smart H1 , Dune HD Smart B1 , Dune HD Max , Dune HD TV-303D, Dune HD TV-102, Dune HD Base 3D, Philips HMP7001, Aura HD, MECOOL BB2
Чтобы изображение было на весь экран в плеере выставляем, если рип 1920х1600 - то выставляем 2.35:1 , если 1920х2160 - то выставляем 16:9

28.10.2018. Релиз обновлён - русская звуковая дорога iTunes заменена на лицензию. .
Желающие, скачайте заново торрент-файл.
Общее
Уникальный идентификатор : 229091751270916194933812206096178417904 (0xAC59776494725080B05830686FD310F0)
Полное имя : G:\видео\Skyscraper.Rip by SeRoGa00.mkv
Формат : Matroska
Версия формата : Version 2
Размер файла : 19,3 Гбайт
Продолжительность : 1 ч. 42 м.
Общий поток : 27,0 Мбит/сек
Дата кодирования : UTC 2018-10-11 05:05:53
Программа кодирования : mkvmerge v3.4.0 ('Rapunzel') сборка от May 15 2010 09:38:20
Библиотека кодирования : libebml v0.8.0 + libmatroska v0.9.0

Видео
Идентификатор : 1
Формат : AVC
Формат/Информация : Advanced Video Codec
Профиль формата : High@L5.0
Параметр CABAC формата : Да
Параметр ReFrames формата : 4 кадра
Идентификатор кодека : V_MPEG4/ISO/AVC
Продолжительность : 1 ч. 42 м.
Битрейт : 25,7 Мбит/сек
Ширина : 1920 пикселей
Высота : 2160 пикселей
Соотношение сторон : 0,889
Частота кадров : 23,976 кадра/сек
Цветовое пространство : YUV
Субдискретизация насыщенности : 4:2:0
Битовая глубина : 8 бит
Тип развёртки : Прогрессивная
Бит/(Пиксели*Кадры) : 0.258
Размер потока : 18,4 Гбайт (95%)
Заголовок : Rip by SeRoGa00
Библиотека кодирования : x264 core 155 r2901 7d0ff22
Настройки программы : cabac=1 / ref=4 / deblock=1:-3:-3 / analyse=0x3:0x113 / me=umh / subme=10 / psy=1 / psy_rd=1.00:0.15 / mixed_ref=1 / me_range=24 / chroma_me=1 / trellis=2 / 8x8dct=1 / cqm=0 / deadzone=21,11 / fast_pskip=1 / chroma_qp_offset=-3 / threads=18 / lookahead_threads=6 / sliced_threads=0 / nr=0 / decimate=0 / interlaced=0 / bluray_compat=0 / constrained_intra=0 / bframes=10 / b_pyramid=2 / b_adapt=2 / b_bias=0 / direct=3 / weightb=1 / open_gop=0 / weightp=2 / keyint=250 / keyint_min=23 / scenecut=40 / intra_refresh=0 / rc_lookahead=60 / rc=crf / mbtree=1 / crf=16.5 / qcomp=0.60 / qpmin=10 / qpmax=69 / qpstep=4 / vbv_maxrate=40000 / vbv_bufsize=40000 / crf_max=0.0 / nal_hrd=none / filler=0 / ip_ratio=1.40 / aq=1:1.00
Язык : English
Default : Нет
Forced : Нет

Аудио #1
Идентификатор : 2
Формат : AC-3
Формат/Информация : Audio Coding 3
Расширение режима : CM (complete main)
Параметр Endianness формата : Big
Идентификатор кодека : A_AC3
Продолжительность : 1 ч. 42 м.
Вид битрейта : Постоянный
Битрейт : 640 Кбит/сек
Каналы : 6 каналов
Расположение каналов : Front: L C R, Side: L R, LFE
Частота : 48,0 КГц
Битовая глубина : 16 бит
Метод сжатия : С потерями
Размер потока : 281 Мбайт (1%)
Язык : Russian
Default : Да
Forced : Нет

Аудио #2
Идентификатор : 3
Формат : AC-3
Формат/Информация : Audio Coding 3
Расширение режима : CM (complete main)
Параметр Endianness формата : Big
Идентификатор кодека : A_AC3
Продолжительность : 1 ч. 42 м.
Вид битрейта : Постоянный
Битрейт : 448 Кбит/сек
Каналы : 6 каналов
Расположение каналов : Front: L C R, Side: L R, LFE
Частота : 48,0 КГц
Битовая глубина : 16 бит
Метод сжатия : С потерями
Размер потока : 328 Мбайт (2%)
Язык : English
Default : Нет
Forced : Нет

Меню
00:00:00.000 : en:00:00:00.000
00:04:24.764 : en:00:04:24.764
00:10:07.355 : en:00:10:07.355
00:16:09.927 : en:00:16:09.927
00:21:12.604 : en:00:21:12.604
00:25:34.990 : en:00:25:34.990
00:30:11.726 : en:00:30:11.726
00:35:23.913 : en:00:35:23.913
00:40:07.112 : en:00:40:07.112
00:47:18.960 : en:00:47:18.960
00:52:10.251 : en:00:52:10.251
00:58:16.784 : en:00:58:16.784
01:02:02.969 : en:01:02:02.969
01:05:29.634 : en:01:05:29.634
01:09:59.403 : en:01:09:59.403
01:14:31.425 : en:01:14:31.425
01:17:18.257 : en:01:17:18.257
01:23:33.341 : en:01:23:33.341
01:27:46.219 : en:01:27:46.219
01:32:54.569 : en:01:32:54.569
скриншот  

скриншот  

скриншот  

скриншот  

скриншот  

скриншот  
pb.wtf



Скачать Небоскреб в 3Д через торрент https://b.radikal.ru/b14/1810/ad/ce4259f22b9a.png Скачать фильм Небоскреб в 3Д через торрент бесплантно в хорошем качестве Описание: Самый высокий и технологичный небоскрёб в мире становится центром огненной катастрофы. Только бывший агент ФБР, а теперь эксперт ... 10 10 5
Info! Серебряная раздача, засчитывается только 50% скачанного.
Торрент: Зарегистрирован [2018-10-28 12:44] · скачан: 57 раз
Статус: √ проверено
Размер: 19.53 GB
Как cкачать? Как скачать Небоскреб в 3Д через торрент | UTorrent

28-11-2019 20:33  

Отключить всю рекламу на сайте

28-10-2018 12:46 Небоскреб в 3Д Скачать торрент  

28.10.2018. Релиз обновлён - русская звуковая дорога iTunes заменена на лицензию. .
Желающие, скачайте заново торрент-файл.pb.wtf



    Дорогой пользователь! Огромная просьба, поблагодарите релизера, оцените раздачу и оставьте свои комментарий, если Вы скачали Небоскреб в 3Д через торрент бесплатно! Внесите свою лепту в развитие PiratBit!
    Комментировать посты могут только пользователи прошедшие не сложную регистрацию
    Показать сообщения:    

    Небоскреб в 3Д через торрент
    Скачать бесплатно Небоскреб в 3Д
    Небоскреб в 3Д скачать торрент
    Небоскреб в 3Д смотреть онлайн
    Cкачать фильм Небоскреб в 3Д бесплатно
    Небоскреб в 3Д скачать торрент в хорошем качестве
    Небоскреб в 3Д смотреть онлайн бесплатно в хорошем качестве


    Вы не можете начинать темы
    Вы не можете отвечать на сообщения
    Вы не можете редактировать свои сообщения
    Вы не можете удалять свои сообщения
    Вы не можете голосовать в опросах
    Вы не можете прикреплять файлы к сообщениям
    Вы можете скачивать файлы