новый адрес
Мега распродажа FORZA HORIZON 4 ULTIMATE+ВСЕ DLC+ОНЛАЙН всего за 499р. 349 руб. (супер цена). Внимание количество ограничено!!!

iTunes

1+1

iTunes

мы

iTunes

1

iTunes

Чернобыль

iTunes

Ральф против интернета

Лицензия

ПШазам

Лицензия

Игра престолов

Лицензия

30
pack

ВАЖНО

!!Акция!!

Alien_RageХит недели

RePack

Resident Evil 21

ИГРА 18+

pack

RePack

Metro:Exodus

!!Акция!!

Alien_Rage

RePack

fifa19

RePack

Assassins Creed: Odyssey

RePack

NEED FOR SPEED™ PAYBACK

3 сезон

9 сезон

Бесстыжие 9 сезон

Все сериалы

все сериалы на PB.wtf

RePack

FAR CRY 5
Ребята, катастрофически не хватает 1900р. для оплаты серверов за Октябрь (всвязи с блокировками трафик упал в 3 раза), 1-2р., выручайте.
  

Барьер неизвестности (Никита Курихин) [1961, СССР, драма, приключения, SATRip от AVP Studio] pb.wtf

Барьер неизвестности через торрент pb.wtf

Размер: 1.09 GB | Добавлен: 1 год 1 мес. назад | Торрент скачан:13 раз
Скачать  

11-10-2018 07:45 Барьер неизвестности Скачать торрент  

Барьер неизвестности
Страна: СССР
Производство: Ленфильм

Жанр: драма, приключения
Год выпуска: 1961
Продолжительность: 01:42:08

Перевод: Не требуется
Cубтитры: нет
Оригинальная аудиодорожка: русский

Режиссер: Никита Курихин

В ролях:
Вячеслав Шалевич, Элла Сумская, Николай Гриценко, Александр Граве, Василий Макаров, Сергей Плотников, Фёдор Никитин, Валентина Кибардина, Т. Тельник, Василий Максимов, Владимир Марьев...
Об актёрах подробней

Описание:
Из экспресса Москва — Ашхабад на глухом полустанке вышли двое: научный сотрудник Вера Станкевич и летчик-испытатель Байкалов. Вскоре герои оказались на полигоне, где проводилась серия испытаний экспериментального самолета «Циклон».

Исходник: DVB
Качество видео: SATRip
Формат видео: AVI

Видео: 704x528 (4:3), 25,000 кадров/сек, XviD ~ 1326 kbps avg, 0.143 bit/pixel
Аудио: 48 kHz, Dolby Digital AC3 2.0, 192 kbps

Раздача от:
Общее
Полное имя : Barer.neizvestnosti.1961.SATRip_[New-team]_by_AVP_Studio.avi
Формат : AVI
Формат/Информация : Audio Video Interleave
Размер файла : 1,09 Гбайт
Продолжительность : 1 ч. 42 м.
Общий поток : 1527 Кбит/сек
Программа кодирования : VirtualDubMod 1.5.10.3 | www.virtualdub-fr.org || (build 2550/release)
Библиотека кодирования : VirtualDubMod build 2550/release

Видео
Идентификатор : 0
Формат : MPEG-4 Visual
Профиль формата : Advanced Simple@L5
Настройки формата : BVOP1 / Custom Matrix
Параметр BVOP формата : 1
Параметр QPel формата : Нет
Параметр GMC формата : Без точки перехода
Параметр матрицы формата : Выборочная
Идентификатор кодека : XVID
Идентификатор кодека/Подсказка : XviD
Продолжительность : 1 ч. 42 м.
Битрейт : 1326 Кбит/сек
Ширина : 704 пикселя
Высота : 528 пикселей
Соотношение сторон : 4:3
Частота кадров : 25,000 кадров/сек
Цветовое пространство : YUV
Субдискретизация насыщенности : 4:2:0
Битовая глубина : 8 бит
Тип развёртки : Прогрессивная
Метод сжатия : С потерями
Бит/(Пиксели*Кадры) : 0.143
Размер потока : 969 Мбайт (87%)
Библиотека кодирования : XviD 73

Аудио
Идентификатор : 1
Формат : AC-3
Формат/Информация : Audio Coding 3
Коммерческое название : Dolby Digital
Идентификатор кодека : 2000
Продолжительность : 1 ч. 42 м.
Вид битрейта : Постоянный
Битрейт : 192 Кбит/сек
Каналы : 2 канала
Channel layout : L R
Частота : 48,0 КГц
Частота кадров : 31,250 кадров/сек (1536 SPF)
Битовая глубина : 16 бит
Метод сжатия : С потерями
Размер потока : 140 Мбайт (13%)
Выравнивание : Разделение по промежуткам
Продолжительность промежутка : 40 мс. (1,00 видеокадр)
Время предзагрузки промежутка : 500 мс
pb.wtf



Скачать Барьер неизвестности через торрент http://picplus.ru/img/1810/11/e2162fc6.png Скачать фильм Барьер неизвестности через торрент бесплантно в хорошем качестве Описание:Из экспресса Москва — Ашхабад на глухом полустанке вышли двое: научный сотрудник Вера Станкевич и летчик-испытатель Байкалов. ... 10 10 3
Info! Золотая раздача, скачанное не засчитывается.
Торрент: Зарегистрирован [2018-10-11 07:45] · скачан: 13 раз
Статус: √ проверено
Размер: 1.09 GB
Как cкачать? Как скачать Барьер неизвестности через торрент | qTorrent

% Раздел Тема Автор DL S | L
Кино СССР [ 1.09 GB ] Барьер неизвестности [1961 СССР SATRip-AVC от AVP Studio] AVP Studio Скачать
1 | 0


>> Регистрируемся здесь <<






Отзывы и комментарии о схеме читаем и пишем здесь: ---> Отзывы и комментарии о схеме

Новые благодарочки в телеграм довольных пользователей:
скриншот   скриншот   скриншот   скриншот   скриншот
    Дорогой пользователь! Огромная просьба, поблагодарите релизера, оцените раздачу и оставьте свои комментарий, если Вы скачали Барьер неизвестности через торрент бесплатно! Внесите свою лепту в развитие PiratBit!
    Комментировать посты могут только пользователи прошедшие не сложную регистрацию
    Показать сообщения:    

    Барьер неизвестности через торрент
    Скачать бесплатно Барьер неизвестности
    Барьер неизвестности скачать торрент
    Барьер неизвестности смотреть онлайн
    Cкачать фильм Барьер неизвестности бесплатно
    Барьер неизвестности скачать торрент в хорошем качестве
    Барьер неизвестности смотреть онлайн бесплатно в хорошем качестве


    Вы не можете начинать темы
    Вы не можете отвечать на сообщения
    Вы не можете редактировать свои сообщения
    Вы не можете удалять свои сообщения
    Вы не можете голосовать в опросах
    Вы не можете прикреплять файлы к сообщениям
    Вы можете скачивать файлы