Ссылка на приватное зеркало всего за 1$. Внимание количество ограничено!!!

iTunes

1+1

iTunes

мы

WEB-DL

1

iTunes

Чернобыль

iTunes

Ральф против интернета

Лицензия

ПШазам

Лицензия

Оно 2

Лицензия

30
pack

Вам бонус

ВАЖНО

!!Акция!!

Alien_RageХит недели

RePack

Resident Evil 21

ИГРА 18+

pack

RePack

jed

!!Акция!!

Alien_Rage

RePack

fifa19

RePack

Assassins Creed: Odyssey

RePack

NEED FOR SPEED™ PAYBACK

3 сезон

9 сезон

Бесстыжие 9 сезон

Все сериалы

все сериалы на PB.wtf

RePack

FAR CRY 5
Ребята, катастрофически не хватает 1900р. для оплаты серверов за Октябрь (всвязи с блокировками трафик упал в 3 раза), 1-2р., выручайте.
  

Лето 84 / Summer of 84 (Франсуа Симар, Анук Висселль, Йоанн-Карл Висселль) [2018, Ужасы, триллер, драма, детектив, BDRip-AVC] MVO [HDrezka Studio] pb.wtf

Лето 84 через торрент pb.wtf

Раздают: 1 [ 0 KB/s ]
Размер: 1.9 GB | Добавлен: 1 год 2 мес. назад | Торрент скачан:590 раз
Скачать  

11-10-2018 18:47 Лето 84 Скачать торрент  

Лето 84 / Summer of 84
Год выпуска: 2018
Страна: Канада, США
Жанр: Ужасы, триллер, драма, детектив
Продолжительность: 01:45:36
Перевод: Профессиональный (многоголосый) | HDrezka Studio
Субтитры: Русские (полные), Английские (полные, SDH)

Режиссер: Франсуа Симар, Анук Висселль, Йоанн-Карл Висселль

rating

В ролях:

Грэм Верчир, Джуда Льюис, Калеб Эмери, Кори Грютер-Эндрю, Тиера Сковбай, Рич Соммер, Джейсон Грей-Стенфорд, Шона Йоханнесен, Марк Брэндон, Дж. Алекс Бринсон

Описание:

Четверо 15-летних друзей проводят лето 1984 года за необычным занятием: они вычисляют серийного убийцу, несколько лет подряд орудующего в округе. Все улики ведут к соседскому дому, где живёт уважаемый офицер полиции.

Качество: BDRip-AVC
Формат: MKV

Видео: 1024x428 (2.40:1), 23,976 fps, x264 ~1 747 kbps avg, 0.166 bit/pixel
Аудио#1: 48 kHz, AC3 Dolby Digital, 3/2 (L,C,R,l,r) + LFE ch, ~384.00 kbps avg | RUS (HDRezka Studio)
Аудио#2: 48 kHz, AC3 Dolby Digital, 3/2 (L,C,R,l,r) + LFE ch, ~448.00 kbps avg | ENG
скриншот  скриншот  скриншот  скриншот  скриншот  

Общее
Уникальный идентификатор : 193848592467684274645410741157732096933 (0x91D5E18213F94E0D7F87B33E8B751BA5)
Полное имя : F:\OlLanDGroup\Summer.Of.84.2018.BDRip(AVC).OlLanDGroup.mkv
Формат : Matroska
Версия формата : Version 4 / Version 2
Размер файла : 1,90 Гбайт
Продолжительность : 1 ч. 45 м.
Общий поток : 2577 Кбит/сек
Название фильма : Summer.Of.84.2018 #TorpedoUK#
Дата кодирования : UTC 2018-10-11 11:00:21
Программа кодирования : mkvmerge v25.0.0 ('Prog Noir') 64-bit
Библиотека кодирования : libebml v1.3.6 + libmatroska v1.4.9

Видео
Идентификатор : 1
Формат : AVC
Формат/Информация : Advanced Video Codec
Профиль формата : High@L4.1
Параметр CABAC формата : Да
Параметр ReFrames формата : 10 кадров
Идентификатор кодека : V_MPEG4/ISO/AVC
Продолжительность : 1 ч. 45 м.
Битрейт : 1747 Кбит/сек
Ширина : 1024 пикселя
Высота : 428 пикселей
Соотношение сторон : 2,40:1
Режим частоты кадров : Постоянный
Частота кадров : 23,976 (24000/1001) кадра/сек
Цветовое пространство : YUV
Субдискретизация насыщенности : 4:2:0
Битовая глубина : 8 бит
Тип развёртки : Прогрессивная
Бит/(Пиксели*Кадры) : 0.166
Размер потока : 1,29 Гбайт (68%)
Библиотека кодирования : x264 core 146 r2538 121396c
Настройки программы : cabac=1 / ref=10 / deblock=1:-3:-3 / analyse=0x3:0x113 / me=umh / subme=11 / psy=1 / psy_rd=0.98:0.05 / mixed_ref=1 / me_range=48 / chroma_me=1 / trellis=2 / 8x8dct=1 / cqm=0 / deadzone=21,11 / fast_pskip=1 / chroma_qp_offset=-3 / threads=6 / lookahead_threads=1 / sliced_threads=0 / nr=0 / decimate=1 / interlaced=0 / bluray_compat=0 / constrained_intra=0 / bframes=10 / b_pyramid=2 / b_adapt=2 / b_bias=0 / direct=3 / weightb=1 / open_gop=0 / weightp=2 / keyint=240 / keyint_min=23 / scenecut=40 / intra_refresh=0 / rc_lookahead=40 / rc=2pass / mbtree=0 / bitrate=1747 / ratetol=1.0 / qcomp=0.60 / qpmin=0 / qpmax=69 / qpstep=4 / cplxblur=20.0 / qblur=0.5 / vbv_maxrate=50000 / vbv_bufsize=62500 / nal_hrd=none / filler=0 / ip_ratio=1.40 / pb_ratio=1.30 / aq=1:1.00
Язык : English
Default : Да
Forced : Нет

Аудио #1
Идентификатор : 2
Формат : AC-3
Формат/Информация : Audio Coding 3
Расширение режима : CM (complete main)
Параметр Endianness формата : Big
Идентификатор кодека : A_AC3
Продолжительность : 1 ч. 45 м.
Вид битрейта : Постоянный
Битрейт : 384 Кбит/сек
Каналы : 6 каналов
Расположение каналов : Front: L C R, Side: L R, LFE
Частота : 48,0 КГц
Частота кадров : 31,250 кадров/сек (1536 spf)
Битовая глубина : 16 бит
Метод сжатия : С потерями
Размер потока : 290 Мбайт (15%)
Заголовок : MVO [HDRezka Studio]
Язык : Russian
Default : Да
Forced : Нет

Аудио #2
Идентификатор : 3
Формат : AC-3
Формат/Информация : Audio Coding 3
Расширение режима : CM (complete main)
Параметр Endianness формата : Big
Идентификатор кодека : A_AC3
Продолжительность : 1 ч. 45 м.
Вид битрейта : Постоянный
Битрейт : 448 Кбит/сек
Каналы : 6 каналов
Расположение каналов : Front: L C R, Side: L R, LFE
Частота : 48,0 КГц
Частота кадров : 31,250 кадров/сек (1536 spf)
Битовая глубина : 16 бит
Метод сжатия : С потерями
Размер потока : 338 Мбайт (17%)
Заголовок : [Original]
Язык : English
Default : Нет
Forced : Нет

Текст #1
Идентификатор : 4
Формат : UTF-8
Идентификатор кодека : S_TEXT/UTF8
Идентификатор кодека/Информация : UTF-8 Plain Text
Продолжительность : 1 ч. 40 м.
Битрейт : 99 бит/сек
Count of elements : 1604
Размер потока : 73,5 Кбайт (0%)
Заголовок : Full
Язык : Russian
Default : Нет
Forced : Нет

Текст #2
Идентификатор : 5
Формат : UTF-8
Идентификатор кодека : S_TEXT/UTF8
Идентификатор кодека/Информация : UTF-8 Plain Text
Продолжительность : 1 ч. 40 м.
Битрейт : 63 бит/сек
Count of elements : 1772
Размер потока : 47,0 Кбайт (0%)
Заголовок : Full
Язык : English
Default : Нет
Forced : Нет

Меню
00:00:00.000 : en:Chapter 1
00:20:01.200 : en:Chapter 2
00:40:02.400 : en:Chapter 3
01:00:04.601 : en:Chapter 4
01:20:04.799 : en:Chapter 5
01:30:06.401 : en:Chapter 6
01:41:03.057 : en:Chapter 7
01:45:36.330 : en:Chapter 8

pb.wtf



Скачать Лето 84 через торрент http://i91.fastpic.ru/big/2018/1011/70/f078f6da1f1249e58564f331d02eb670.jpg Скачать фильм Лето 84 через торрент бесплантно в хорошем качестве Описание: Четверо 15-летних друзей проводят лето 1984 года за необычным занятием: они вычисляют серийного убийцу, несколько лет подряд ... 10 10 14
Торрент: Зарегистрирован [2018-10-11 18:47] · скачан: 590 раз
Статус: T временная
Размер: 1.9 GB
Как cкачать? Как скачать Лето 84 через торрент | qTorrent

% Раздел Тема Автор DL S | L
Фильмы 2018 [DVDrip, WEB-DLRip, HDrip] (DUB, MVO) [ 1.46 GB ] Лето 84 / Summer of 84 [2018 BDRip] MVO | Jaskier Skandar2019 Скачать
2 | 0
Фильмы [HD 720p, 1080p] (Хороший звук DUB, MVO) [ 9.55 GB ] Лето 84 / Summer of 84 [2018 BDRip 1080p] 2xMVO [Jaskier HDrezka Studio] bober100 Скачать
1 | 0
Фильмы [HD 720p, 1080p] (Хороший звук DUB, MVO) [ 4.63 GB ] Лето 84 / Summer of 84 [2018 BDRip 720p] 2xMVO [Jaskier HDrezka Studio] bober100 Скачать
1 | 0
T Фильмы [HD 720p, 1080p] (Хороший звук DUB, MVO) [ 3.27 GB ] Лето 84 / Summer of 84 [2018 BDRip 1080p HEVC ] [HDrezka Studio] Мичман37 Скачать
1 | 0
T Фильмы (Blu-ray, BD-Remux, HDDVD) [ 19.26 GB ] Лето 84 / Summer of 84 [2018 BD Remux 1080p] MVO [HDrezka Studio] bober100 Скачать
2 | 0

28-11-2019 20:33  

Отключить всю рекламу на сайте

    Дорогой пользователь! Огромная просьба, поблагодарите релизера, оцените раздачу и оставьте свои комментарий, если Вы скачали Лето 84 через торрент бесплатно! Внесите свою лепту в развитие PiratBit!
    Комментировать посты могут только пользователи прошедшие не сложную регистрацию
    Показать сообщения:    

    Лето 84 через торрент
    Скачать бесплатно Лето 84
    Лето 84 скачать торрент
    Лето 84 смотреть онлайн
    Cкачать фильм Лето 84 бесплатно
    Лето 84 скачать торрент в хорошем качестве
    Лето 84 смотреть онлайн бесплатно в хорошем качестве


    Вы не можете начинать темы
    Вы не можете отвечать на сообщения
    Вы не можете редактировать свои сообщения
    Вы не можете удалять свои сообщения
    Вы не можете голосовать в опросах
    Вы не можете прикреплять файлы к сообщениям
    Вы можете скачивать файлы