Ссылка на приватное зеркало нашего сайта всего за 1$. Внимание количество ограничено!!!

2 сезон

iTunes

1 сезон

1

iTunes

iTunes

iTunes

1 сезон

RePack

30

ИГРА 18+

pack

ВАЖНО

!!Акция!!

Alien_RageХит недели

RePack

MK11
pack

Забери бонус

RePack

jed

!!Акция!!

Alien_Rage

RePack

fifa19

RePack

Assassins Creed: Odyssey

RePack

NEED FOR SPEED™ PAYBACK

4 сезон

9 сезон

Бесстыжие 9 сезон

Все сериалы

все сериалы на PB.wtf

RePack

FAR CRY 5
  

Впереди день / Сезон: 1 / Серии: 1-8 из 8 (Евгений Семёнов) [2018, Мелодрама, HDTVRip] pb.wtf

Впереди день через торрент pb.wtf

Размер: 4.81 GB | Добавлен: 2 года назад | Торрент скачан:34 раза
Скачать  

12-10-2018 03:08 Впереди день Скачать торрент  

Впереди деньГод выпуска: 2018
Страна: Россия
Жанр: Мелодрама
Продолжительность: ~ 00:45:00 серия
Субтитры: отсутствуют

Режиссер: Евгений Семёнов



В ролях:

Тулинова, Яна Гурьянова, Михаил Пшеничный, Александр Никитин, Александр Асташёнок, Виталий Егоров, Денис Старков, Евгений Березовский, Севастьян Бугаев

Описание:

Лихие 90-е… В центре сюжета три женщины – подруги, жены "новых русских" Нина и Лена (Екатерина Редникова, Ирина Горячева) и Мила (Мария Куликова), домработница Нины. По странному совпадению всем трем скоро рожать. Как выяснится, от Кирилла (Сергей Горобченко) беременна не только его жена Нина, но и Мила! Женщины встречаются в ресторане, чтобы выяснить отношения и разобраться в сложившейся ситуации. И никто не знает, чем бы это закончилось – скандалом с битьем посуды, проклятьями в адрес Кирилла, взаимными обвинениями, – но внезапно вспыхнувшая бандитская разборка становится причиной неожиданного поворота в сюжете. У женщин начинаются роды… У всех трех одновременно. Побывав под бандитскими пулями, Нина, Лена и Мила становятся подругами на всю жизнь. Но как же им быть с неверным мужем, который в этот день стал отцом сразу двух дочек? Кирилл принимает неожиданное решение – развестись с Ниной и жениться на домработнице… Проходит 17 лет. Мила больше не прислуга. Теперь она богатая светская дама. А Нина и Лена, наоборот, с трудом сводят концы с концами, и лишь поддержка Милы помогает им удержаться на плаву. Их дочки – Ира (Майя Горбань), Оля (Александра Тулинова) и Маша (Яна Гурьянова), которые родились в один день, – тоже лучшие подруги. Они собираются вместе, чтобы отметить общий день рождения. Но веселье омрачает появление незваного гостя: бывший сообщник Кирилла требует от его близких вернуть его долги. И в один миг праздник превращается в свою противоположность…

Качество: HDTVRip
Формат: AVI

Видео: 720x400 (1.80:1), 25 fps, XviD build 73 ~1600 kbps avg, 0.222 bit/pixel
Аудио: 48.0 kHz, AC3 Dolby Digital, 2/0 (L,R) ch, ~ 192 kbps
скриншот  скриншот  скриншот  скриншот  

Общее
Полное имя : D:\Впереди день. .2018.HDTVRip.Files-x\01.Впереди день. .2018.HDTVRip.Files-x.avi
Формат : AVI
Формат/Информация : Audio Video Interleave
Размер файла : 603 Мбайт
Продолжительность : 49 м. 39 с.
Общий поток : 1699 Кбит/сек
Программа кодирования : VirtualDubMod 1.5.10.3 | www.virtualdub-fr.org || (build 2550/release)
Библиотека кодирования : VirtualDubMod build 2550/release

Видео
Идентификатор : 0
Формат : MPEG-4 Visual
Профиль формата : Advanced Simple@L5
Параметр BVOP формата : 1
Параметр QPel формата : Нет
Параметр GMC формата : Без точки перехода
Параметр матрицы формата : Выборочная
Идентификатор кодека : XVID
Идентификатор кодека/Подсказка : XviD
Продолжительность : 49 м. 39 с.
Битрейт : 1497 Кбит/сек
Ширина : 720 пикселей
Высота : 400 пикселей
Соотношение сторон : 16:9
Частота кадров : 25,000 кадров/сек
Цветовое пространство : YUV
Субдискретизация насыщенности : 4:2:0
Битовая глубина : 8 бит
Тип развёртки : Прогрессивная
Метод сжатия : С потерями
Бит/(Пиксели*Кадры) : 0.208
Размер потока : 532 Мбайт (88%)
Библиотека кодирования : XviD 73

Аудио
Идентификатор : 1
Формат : AC-3
Формат/Информация : Audio Coding 3
Расширение режима : CM (complete main)
Параметр Endianness формата : Big
Идентификатор кодека : 2000
Продолжительность : 49 м. 39 с.
Вид битрейта : Постоянный
Битрейт : 192 Кбит/сек
Каналы : 2 канала
Расположение каналов : Front: L R
Частота : 48,0 КГц
Частота кадров : 31,250 кадров/сек (1536 spf)
Метод сжатия : С потерями
Размер потока : 68,2 Мбайт (11%)
Выравнивание : Разделение по промежуткам
Продолжительность промежутка : 40 мс. (1,00 видеокадр)
Время предзагрузки промежутка : 500 мс.

pb.wtf



Скачать Впереди день через торрент http://i91.fastpic.ru/big/2018/1008/ed/937765f53c491e97d5fe44ba3df399ed.jpg Скачать фильм Впереди день через торрент бесплантно в хорошем качестве Описание: Лихие 90-е… В центре сюжета три женщины – подруги, жены "новых русских" Нина и Лена (Екатерина Редникова, Ирина Горячева) и Мила ... 10 10 3
Торрент: Зарегистрирован [2018-10-12 03:08] · скачан: 34 раз
Статус: √ проверено
Размер: 4.81 GB
Как cкачать? Как скачать Впереди день через торрент | qTorrent

% Раздел Тема Автор DL S | L
Наши сериалы [ 21.72 GB ] Впереди день / Сезон: 1 / Серии: 1-8 из 8 [2018 Мело HDTV 1080i] bober100 Скачать
1 | 0
Наши сериалы [ 4.35 GB ] Впереди день / Сезон: 1 / Серии: 1-8 из 8 [2018 Мело WEB-DLRip] bober100 Скачать
2 | 0
Наши сериалы [ 11.91 GB ] Впереди день / Сезон: 1 / Серии: 1-8 из 8 [2018 Мело HDTVRip 720p] bober100 Скачать
1 | 0
Наши сериалы [ 6.22 GB ] Впереди день / Сезон: 1 / Серии: 1-8 из 8 [2018 Мело HDTVRip-AVC] bober100 Скачать
1 | 0
Наши сериалы [ 5.54 GB ] Впереди день / Сезон: 1 / Серии: 1-8 из 8 [2018 Мело SATRip] bober100 Скачать
1 | 0

28-11-2019 20:33  

Отключить всю рекламу на сайте

    Дорогой пользователь! Огромная просьба, поблагодарите релизера, оцените раздачу и оставьте свои комментарий, если Вы скачали Впереди день через торрент бесплатно! Внесите свою лепту в развитие PiratBit!
    Комментировать посты могут только пользователи прошедшие не сложную регистрацию
    Показать сообщения:    

    Впереди день через торрент
    Скачать бесплатно Впереди день
    Впереди день скачать торрент
    Впереди день смотреть онлайн
    Cкачать фильм Впереди день бесплатно
    Впереди день скачать торрент в хорошем качестве
    Впереди день смотреть онлайн бесплатно в хорошем качестве


    Вы не можете начинать темы
    Вы не можете отвечать на сообщения
    Вы не можете редактировать свои сообщения
    Вы не можете удалять свои сообщения
    Вы не можете голосовать в опросах
    Вы не можете прикреплять файлы к сообщениям
    Вы можете скачивать файлы