Ссылка на приватное зеркало нашего сайта всего за 1$. Внимание количество ограничено!!!

2 сезон

iTunes

1 сезон

1

iTunes

iTunes

iTunes

1 сезон

RePack

30

ИГРА 18+

pack

ВАЖНО

!!Акция!!

Alien_RageХит недели

RePack

MK11
pack

Забери бонус

RePack

jed

!!Акция!!

Alien_Rage

RePack

fifa19

RePack

Assassins Creed: Odyssey

RePack

NEED FOR SPEED™ PAYBACK

4 сезон

9 сезон

Бесстыжие 9 сезон

Все сериалы

все сериалы на PB.wtf

RePack

FAR CRY 5
  

Московская борзая / Сезон: 2 / Серии: 1-16 из 16 (Роман Просвирнин) [2018, Криминал, мелодрама, WEB-DL 1080p] pb.wtf

Московская борзая через торрент pb.wtf

Размер: 14.16 GB | Добавлен: 2 года назад | Торрент скачан:69 раз
Скачать  

12-10-2018 08:00 Московская борзая Скачать торрент  

Московская борзая - 2Год выпуска: 2018
Страна: Россия
Жанр: Криминал, мелодрама
Продолжительность: ~ 00:45:00
Субтитры: отсутствуют

Режиссер: Роман Просвирнин



В ролях:

Екатерина Климова, Олег Алмазов, Александр Ратников, Сергей Мухин, Николай Лунин (II), Татьяна Кузнецова, Сергей Шеховцов и другие

Описание:

Новый сезон по-настоящему удивит телезрителей, ведь на этот раз события развернутся... в подсознании главной героини! Распутывая очередное преступление, Борзова сама становится жертвой. По сценарию, среди груды тел следователи находят полуживую Алевтину. Чтобы распутать головоломку и разобраться в трагедии, сыщики решаются на небывалый эксперимент. Интрига будет строиться вокруг нового персонажа в исполнении актрисы Екатерины Климовой. Именно её героине предстоит внедриться в голову майора Борзовой.

Качество: WEB-DL 1080p
Формат: MKV

Видео: MPEG-4 AVC, ~ 2650 Кбит/с, 1920x1080, 25 кадр/c
Аудио: AC3, 2 ch, 192 Кбит/с
скриншот  скриншот  скриншот  

Общее
Уникальный идентификатор : 284626171192167322990942689701994747202 (0xD62101B0E65FE2B020DC154C35C8D542)
Полное имя : D:\Московская борзая (2018) WEB-DL.by.Алехаndr\Серия 01.by.Алехаndr.mkv
Формат : Matroska
Версия формата : Version 4 / Version 2
Размер файла : 980 Мбайт
Продолжительность : 51 м. 1 с.
Общий поток : 2685 Кбит/сек
Дата кодирования : UTC 2018-10-01 18:44:41
Программа кодирования : mkvmerge v27.0.0 ('Metropolis') 32-bit
Библиотека кодирования : libebml v1.3.6 + libmatroska v1.4.9 / Lavf57.71.100

Видео
Идентификатор : 1
Формат : AVC
Формат/Информация : Advanced Video Codec
Профиль формата : High@L4
Параметр CABAC формата : Да
Параметр RefFrames формата : 2 кадра
Идентификатор кодека : V_MPEG4/ISO/AVC
Продолжительность : 51 м. 1 с.
Битрейт : 2491 Кбит/сек
Ширина : 1920 пикселей
Высота : 1080 пикселей
Соотношение сторон : 16:9
Режим частоты кадров : Постоянный
Частота кадров : 25,000 кадров/сек
Цветовое пространство : YUV
Субдискретизация насыщенности : 4:2:0
Битовая глубина : 8 бит
Тип развёртки : Прогрессивная
Бит/(Пиксели*Кадры) : 0.048
Размер потока : 909 Мбайт (93%)
Default : Да
Forced : Нет
Цветовой диапазон : Limited
Основные цвета : BT.709
Характеристики трансфера : BT.709
Коэффициенты матрицы : BT.709
HANDLER_NAME : VideoHandler

Аудио
Идентификатор : 2
Формат : AC-3
Формат/Информация : Audio Coding 3
Расширение режима : CM (complete main)
Параметр Endianness формата : Big
Идентификатор кодека : A_AC3
Продолжительность : 51 м. 1 с.
Вид битрейта : Постоянный
Битрейт : 192 Кбит/сек
Каналы : 2 канала
Расположение каналов : Front: L R
Частота : 48,0 КГц
Частота кадров : 31,250 кадров/сек (1536 spf)
Метод сжатия : С потерями
Размер потока : 70,1 Мбайт (7%)
Default : Да
Forced : Нет
HANDLER_NAME : SoundHandler

pb.wtf



Скачать Московская борзая через торрент http://i89.fastpic.ru/big/2018/1001/9d/1aa33024417e8540c93ab59e12c9b79d.jpg Скачать фильм Московская борзая через торрент бесплантно в хорошем качестве Описание: Новый сезон по-настоящему удивит телезрителей, ведь на этот раз события развернутся... в подсознании главной героини! Распутывая ... 8 10 7
Торрент: Зарегистрирован [2018-10-12 08:00] · скачан: 69 раз
Статус: √ проверено
Размер: 14.16 GB
Как cкачать? Как скачать Московская борзая через торрент | qTorrent

% Раздел Тема Автор DL S | L
Наши сериалы [ 10.9 GB ] Московская борзая / Сезон: 2 / Серии: 1-16 из 16 [2018 SATRip] bober100 Скачать
1 | 0

28-11-2019 20:33  

Отключить всю рекламу на сайте

    Дорогой пользователь! Огромная просьба, поблагодарите релизера, оцените раздачу и оставьте свои комментарий, если Вы скачали Московская борзая через торрент бесплатно! Внесите свою лепту в развитие PiratBit!
    Комментировать посты могут только пользователи прошедшие не сложную регистрацию
    Показать сообщения:    

    Московская борзая через торрент
    Скачать бесплатно Московская борзая
    Московская борзая скачать торрент
    Московская борзая смотреть онлайн
    Cкачать фильм Московская борзая бесплатно
    Московская борзая скачать торрент в хорошем качестве
    Московская борзая смотреть онлайн бесплатно в хорошем качестве


    Вы не можете начинать темы
    Вы не можете отвечать на сообщения
    Вы не можете редактировать свои сообщения
    Вы не можете удалять свои сообщения
    Вы не можете голосовать в опросах
    Вы не можете прикреплять файлы к сообщениям
    Вы можете скачивать файлы