Ссылка на приватное зеркало нашего сайта всего за 1$. Внимание количество ограничено!!!

2 сезон

iTunes

1 сезон

1

iTunes

iTunes

iTunes

1 сезон

RePack

30

ИГРА 18+

pack

ВАЖНО

!!Акция!!

Alien_RageХит недели

RePack

MK11
pack

Забери бонус

RePack

jed

!!Акция!!

Alien_Rage

RePack

fifa19

RePack

Assassins Creed: Odyssey

RePack

NEED FOR SPEED™ PAYBACK

4 сезон

9 сезон

Бесстыжие 9 сезон

Все сериалы

все сериалы на PB.wtf

RePack

FAR CRY 5
  

Операция Сатана / Сезон: 1 / Серии: 1-8 из 8 (Юрий Мороз) [2018, Детектив, криминал, WEB-DL 720p] pb.wtf

Операция Сатана через торрент pb.wtf

Раздают: 2 [ 0.7 KB/s ]
Размер: 9.21 GB | Добавлен: 2 года назад | Торрент скачан:191 раз
Скачать  

12-10-2018 11:54 Операция Сатана Скачать торрент  

Операция СатанаГод выпуска: 2018
Страна: Россия
Жанр: Детектив, криминал
Продолжительность: ~ 00:50:00
Субтитры: отсутствуют

Режиссер: Юрий Мороз



В ролях:

Андрей Смоляков, Марина Александрова, Даниэла Стоянович, Владимир Юматов, Сергей Угрюмов, Луиза Мосендз, Яна Сексте, Владимир Ильин, Виктория Исакова, Александр Домогаров, Сергей Колтаков, Игорь Гордин, Александра Ребенок, Александр Голубев, Софья Евстигнеева, Лариса Удовиченко, Юрий Чурсин, Алексей Бардуков, Филипп Гуревич, Дмитрий Куличков, Юрий Тарасов

Описание:

1975 год - холодная война между СССР и США, гонка вооружений. Напряженно работают физики-ядерщики. В Советском Союзе становится очевидной утечка секретной информации о разработке ракеты «Сатана». Казалось бы, как может быть связан майор милиции с разведкой спецслужб? Однако именно он, Иван Петрович, уволенный из МУРа, трудящийся обычным участковым, оказывает неоценимую помощь КГБ в поимке американского шпиона.

Качество: WEB-DL 720p
Формат: MKV

Видео: MPEG-4 AVC, ~ 3200 Кбит/с, 1280x720
Аудио: AC3, 2 ch, 192 Кбит/с
скриншот   скриншот   скриншот   скриншот  скриншот  

Общее
Уникальный идентификатор : 182056729629967969622712888098646851821 (0x88F6D9C8997DD93994BF054CAC0B00ED)
Полное имя : D:\Operaciya.satana.2018.WEB-DL.(720p).Getty\Operaciya.satana.e01.2018.WEB-DL.(720p).Getty.mkv
Формат : Matroska
Версия формата : Version 4 / Version 2
Размер файла : 1,14 Гбайт
Продолжительность : 49 м. 16 с.
Режим общего битрейта : Постоянный
Общий поток : 3302 Кбит/сек
Название фильма : Operaciya.satana.e01.2018.WEB-DL.(720p).Getty
Дата кодирования : UTC 2018-10-01 19:15:22
Программа кодирования : mkvmerge v7.8.0 ('River Man') 32bit built on Mar 27 2015 16:18:02
Библиотека кодирования : libebml v1.3.1 + libmatroska v1.4.2

Видео
Идентификатор : 1
Формат : AVC
Формат/Информация : Advanced Video Codec
Профиль формата : High@L4.1
Параметр CABAC формата : Да
Параметр RefFrames формата : 4 кадра
Идентификатор кодека : V_MPEG4/ISO/AVC
Продолжительность : 49 м. 16 с.
Вид битрейта : Постоянный
Битрейт : 3200 Кбит/сек
Ширина : 1280 пикселей
Высота : 720 пикселей
Соотношение сторон : 16:9
Режим частоты кадров : Постоянный
Частота кадров : 25,000 кадров/сек
Цветовое пространство : YUV
Субдискретизация насыщенности : 4:2:0
Битовая глубина : 8 бит
Тип развёртки : Прогрессивная
Бит/(Пиксели*Кадры) : 0.139
Размер потока : 1,07 Гбайт (94%)
Default : Да
Forced : Нет

Аудио
Идентификатор : 2
Формат : AC-3
Формат/Информация : Audio Coding 3
Расширение режима : CM (complete main)
Параметр Endianness формата : Big
Идентификатор кодека : A_AC3
Продолжительность : 49 м. 16 с.
Вид битрейта : Постоянный
Битрейт : 192 Кбит/сек
Каналы : 2 канала
Расположение каналов : Front: L R
Частота : 48,0 КГц
Частота кадров : 31,250 кадров/сек (1536 spf)
Метод сжатия : С потерями
Размер потока : 67,7 Мбайт (6%)
Default : Да
Forced : Нет

pb.wtf



Скачать Операция Сатана через торрент http://a.radikal.ru/a06/1809/c9/ae61e24ea0dc.jpg Скачать фильм Операция Сатана через торрент бесплантно в хорошем качестве Описание: 1975 год - холодная война между СССР и США, гонка вооружений. Напряженно работают физики-ядерщики. В Советском Союзе становится ... 10 10 6
Торрент: Зарегистрирован [2018-10-12 11:54] · скачан: 191 раз
Статус: √ проверено
Размер: 9.21 GB
Как cкачать? Как скачать Операция Сатана через торрент | qTorrent

% Раздел Тема Автор DL S | L
Наши сериалы [ 16.28 GB ] Операция Сатана / Сезон: 1 / Серии: 1-8 из 8 [2018 HDTV 1080i] bober100 Скачать
2 | 0
Наши сериалы [ 13.59 GB ] Операция Сатана / Сезон: 1 / Серии: 1-8 из 8 [2018 WEB-DL 1080p] bober100 Скачать
1 | 0
Наши сериалы [ 4.74 GB ] Операция Сатана / Сезон: 1 / Серии: 1-8 из 8 [2018 WEB-DLRip] bober100 Скачать
1 | 0
Наши сериалы [ 6.01 GB ] Операция Сатана / Сезон: 1 / Серии: 1-8 из 8 [2018 HDTVRip-AVC] bober100 Скачать
1 | 0
Наши сериалы [ 10.13 GB ] Операция Сатана / Сезон: 1 / Серии: 1-8 из 8 [2018 HDTVRip 720p] bober100 Скачать
1 | 0
Наши сериалы [ 5.4 GB ] Операция Сатана / Сезон: 1 / Серии: 1-8 из 8 [2018 HDTVRip] bober100 Скачать
1 | 0

28-11-2019 20:33  

Отключить всю рекламу на сайте

    Дорогой пользователь! Огромная просьба, поблагодарите релизера, оцените раздачу и оставьте свои комментарий, если Вы скачали Операция Сатана через торрент бесплатно! Внесите свою лепту в развитие PiratBit!
    Комментировать посты могут только пользователи прошедшие не сложную регистрацию
    Показать сообщения:    

    Операция Сатана через торрент
    Скачать бесплатно Операция Сатана
    Операция Сатана скачать торрент
    Операция Сатана смотреть онлайн
    Cкачать фильм Операция Сатана бесплатно
    Операция Сатана скачать торрент в хорошем качестве
    Операция Сатана смотреть онлайн бесплатно в хорошем качестве


    Вы не можете начинать темы
    Вы не можете отвечать на сообщения
    Вы не можете редактировать свои сообщения
    Вы не можете удалять свои сообщения
    Вы не можете голосовать в опросах
    Вы не можете прикреплять файлы к сообщениям
    Вы можете скачивать файлы