2 сезон

iTunes

MVO

1

2 сезон

iTunes

iTunes

1 сезон

RePack

30

Ultimate

ВАЖНО

ИГРА 18+

pack

RePack

MK11
pack

Легкие деньги

RePack

jed

RePack

fifa19

RePack

RDR2

RePack

NEED FOR SPEED™ PAYBACK

4 сезон

9 сезон

Бесстыжие 9 сезон

Все сериалы

все сериалы на PB.wtf

RePack

FAR CRY 5

Anonymous, доброе утро, мы не успеваем собрать деньги на оплату серверов за декабрь и январь, помогите нам пожалуйста в это трудное время. В качестве благодарности мы отключим Вам всю рекламу на сайте (укажите свой ник в строку Ваше имя)!

×
  
Magnet ссылка

Кавалерия (Двенадцать сильных) / 12 Strong (Николай Фульси) [2018 г., Боевик, драма, военный, история, BDRip 1080p, HEVC, Дубляж (iTunes)] pb.wtf

Кавалерия через торрент pb.wtf

Размер: 5.75 GB | Добавлен: 2 года 3 мес. назад | Торрент скачан:181 раз
Скачать  

12-10-2018 14:23 Кавалерия Скачать торрент  

Кавалерия (Двенадцать сильных) / 12 Strong
Год выпуска: 2018
Страна: США
Жанр: Боевик, драма, военный, история
Продолжительность: 02:09:52
Перевод: Дубляж iTunes
Субтитры: Русские (форсированные), английские

Режиссер: Николай Фульси

rating

В ролях: Крис Хемсворт, Майкл Шеннон, Майкл Пенья, Навид Негабан, Треванте Роудс, Джофф Стульц, Тэд Лакинбилл

Описание: Их бросили в пекло после 11 сентября, когда мир раскололся на «до» и «после». Именно им предстояло на передовой бороться с врагом, не знающим пощады. На чужой земле преимущество у всадников — этому их научили нежданные союзники. Вместе они попытаются удержать мир от погружения в хаос.
Доп. информация: -
H.265/HEVC (High Efficiency Video Coding) - это новый стандарт кодирования видео.
- Стандарт H.265/HEVC является логическим продолжением стандарта
H.264/AVC (Advanced Video Coding), и характеризуется более эффективными
алгоритмами сжатия, а также поддержкой высокого разрешения вплоть до 8K UHD
(8192x4320). Первая версия стандарта H.265 была опубликована в начале 2013 года.
- Рипы в фомате HEVC поддерживается не всеми аппаратными проигрывателями.
- Для корректного воспроизведения может потребоваться обновление ПО.
- Владельцам несовместимого железа просьба не беспокоить,
есть альтернативные релизы.
Качество: BDRip 1080p
Формат: MKV
Видео кодек: H.265
Аудио кодек: AC3
Видео: 1920x800, ~5502 Kbps
Аудио#1: AC3, 6 ch, 384 Kbps (Дублированный)
Аудио#2: AC3, 6 ch, 448 Kbps (Оригинал)
Релиз от: Immortel
Общее
Уникальный идентификатор : 123568890448191681144424294059319476072 (0x5CF680AC6AF92A4F5ACF48C1ECEBBF68)
Полное имя : F:\РАЗДАЧИ\12 strong hevc 1080p.mkv
Формат : Matroska
Версия формата : Version 4 / Version 2
Размер файла : 5,75 Гбайт
Продолжительность : 2 ч. 9 м.
Общий поток : 6335 Кбит/сек
Название фильма : 12 Strong
Дата кодирования : UTC 2018-06-30 16:04:36
Программа кодирования : mkvmerge v22.0.0 ('At The End Of The World') 64-bit
Библиотека кодирования : libebml v1.3.5 + libmatroska v1.4.8

Видео
Идентификатор : 1
Формат : HEVC
Формат/Информация : High Efficiency Video Coding
Профиль формата : Main@L4@High
Идентификатор кодека : V_MPEGH/ISO/HEVC
Продолжительность : 2 ч. 9 м.
Битрейт : 5502 Кбит/сек
Ширина : 1920 пикселей
Высота : 800 пикселей
Соотношение сторон : 2,40:1
Режим частоты кадров : Постоянный
Частота кадров : 23,976 (24000/1001) кадра/сек
Цветовое пространство : YUV
Субдискретизация насыщенности : 4:2:0
Битовая глубина : 8 бит
Бит/(Пиксели*Кадры) : 0.149
Размер потока : 4,99 Гбайт (87%)
Заголовок : 12 Strong (2018) - Encoded by Immortel
Библиотека кодирования : x265 2.8+3-450421921079:[Windows][MSVC 1900][64 bit] 8bit
Настройки программы : cpuid=1111039 / frame-threads=2 / numa-pools=4 / wpp / pmode / no-pme / no-psnr / no-ssim / log-level=2 / input-csp=1 / input-res=1920x800 / interlace=0 / total-frames=186820 / level-idc=40 / high-tier=1 / uhd-bd=0 / ref=4 / no-allow-non-conformance / repeat-headers / annexb / aud / hrd / info / hash=0 / no-temporal-layers / no-open-gop / min-keyint=24 / keyint=240 / gop-lookahead=0 / bframes=6 / b-adapt=2 / b-pyramid / bframe-bias=0 / rc-lookahead=48 / lookahead-slices=0 / scenecut=40 / radl=0 / no-intra-refresh / ctu=64 / min-cu-size=8 / no-rect / no-amp / max-tu-size=32 / tu-inter-depth=1 / tu-intra-depth=4 / limit-tu=0 / rdoq-level=0 / dynamic-rd=0.00 / no-ssim-rd / signhide / no-tskip / nr-intra=0 / nr-inter=0 / no-constrained-intra / no-strong-intra-smoothing / max-merge=5 / limit-refs=1 / no-limit-modes / me=2 / subme=7 / merange=57 / temporal-mvp / weightp / weightb / no-analyze-src-pics / deblock=0:0 / no-sao / no-sao-non-deblock / rd=4 / no-early-skip / no-rskip / no-fast-intra / no-tskip-fast / no-cu-lossless / no-b-intra / no-splitrd-skip / rdpenalty=0 / psy-rd=1.00 / psy-rdoq=0.00 / no-rd-refine / no-lossless / cbqpoffs=0 / crqpoffs=0 / rc=abr / bitrate=5500 / qcomp=0.90 / qpstep=4 / stats-write=0 / stats-read=2 / cplxblur=20.0 / qblur=0.5 / vbv-maxrate=30000 / vbv-bufsize=30000 / vbv-init=0.9 / ipratio=1.40 / pbratio=1.30 / aq-mode=2 / aq-strength=1.00 / no-cutree / zone-count=0 / no-strict-cbr / qg-size=32 / no-rc-grain / qpmax=69 / qpmin=0 / no-const-vbv / sar=1 / overscan=0 / videoformat=5 / range=0 / colorprim=1 / transfer=1 / colormatrix=1 / chromaloc=0 / display-window=0 / max-cll=0,0 / min-luma=0 / max-luma=255 / log2-max-poc-lsb=8 / vui-timing-info / vui-hrd-info / slices=1 / no-opt-qp-pps / no-opt-ref-list-length-pps / no-multi-pass-opt-rps / scenecut-bias=0.05 / no-opt-cu-delta-qp / aq-motion / no-hdr / no-hdr-opt / no-dhdr10-opt / no-idr-recovery-sei / analysis-reuse-level=5 / scale-factor=0 / refine-intra=0 / refine-inter=0 / refine-mv=0 / no-limit-sao / ctu-info=0 / no-lowpass-dct / refine-mv-type=0 / copy-pic=1 / max-ausize-factor=1.0 / no-dynamic-refine / no-single-sei
Default : Да
Forced : Да
Цветовой диапазон : Limited
Основные цвета : BT.709
Характеристики трансфера : BT.709
Коэффициенты матрицы : BT.709

Аудио #1
Идентификатор : 2
Формат : AC-3
Формат/Информация : Audio Coding 3
Идентификатор кодека : A_AC3
Продолжительность : 2 ч. 9 м.
Вид битрейта : Постоянный
Битрейт : 384 Кбит/сек
Каналы : 6 каналов
Расположение каналов : Front: L C R, Side: L R, LFE
Частота : 48,0 КГц
Частота кадров : 31,250 кадров/сек (1536 SPF)
Битовая глубина : 16 бит
Метод сжатия : С потерями
Размер потока : 357 Мбайт (6%)
Заголовок : Dubbing (iTunes)
Язык : Russian
ServiceKind/String : Complete Main
Default : Да
Forced : Да

Аудио #2
Идентификатор : 3
Формат : AC-3
Формат/Информация : Audio Coding 3
Идентификатор кодека : A_AC3
Продолжительность : 2 ч. 9 м.
Вид битрейта : Постоянный
Битрейт : 448 Кбит/сек
Каналы : 6 каналов
Расположение каналов : Front: L C R, Side: L R, LFE
Частота : 48,0 КГц
Частота кадров : 31,250 кадров/сек (1536 SPF)
Битовая глубина : 16 бит
Метод сжатия : С потерями
Размер потока : 416 Мбайт (7%)
Заголовок : Original
Язык : English
ServiceKind/String : Complete Main
Default : Нет
Forced : Нет

Текст #1
Идентификатор : 4
Формат : UTF-8
Идентификатор кодека : S_TEXT/UTF8
Идентификатор кодека/Информация : UTF-8 Plain Text
Продолжительность : 2 ч. 0 м.
Битрейт : 4 бит/сек
ElementCount : 72
Размер потока : 4,27 Кбайт (0%)
Заголовок : Forced
Язык : Russian
Default : Да
Forced : Да

Текст #2
Идентификатор : 5
Формат : UTF-8
Идентификатор кодека : S_TEXT/UTF8
Идентификатор кодека/Информация : UTF-8 Plain Text
Продолжительность : 1 ч. 59 м.
Битрейт : 59 бит/сек
ElementCount : 1561
Размер потока : 51,6 Кбайт (0%)
Язык : English
Default : Нет
Forced : Нет

Меню
00:00:00.000 : en:Chapter 1
00:12:41.344 : en:Chapter 2
00:21:53.729 : en:Chapter 3
00:32:56.600 : en:Chapter 4
00:44:03.808 : en:Chapter 5
00:56:21.878 : en:Chapter 6
01:10:04.867 : en:Chapter 7
01:21:03.942 : en:Chapter 8
01:27:28.827 : en:Chapter 9
01:41:19.782 : en:Chapter 10
01:50:16.276 : en:Chapter 11
02:01:16.561 : en:Chapter 12

pb.wtf



Скачать Кавалерия через торрент https://d.radikal.ru/d15/1810/dc/90651ac1539b.jpg Скачать фильм Кавалерия через торрент бесплантно в хорошем качестве Описание: Их бросили в пекло после 11 сентября, когда мир раскололся на «до» и «после». Именно им предстояло на передовой бороться с ... 9.6 10 5
Info! Золотая раздача, скачанное не засчитывается.
Торрент: Зарегистрирован [2018-10-12 14:23] · скачан: 181 раз
Статус: √ проверено
Размер: 5.75 GB
Как cкачать? Как скачать Кавалерия через торрент | UTorrent

% Раздел Тема Автор DL S | L
Домашнее порно [ 24 MB ] Кавалер трахнул худенькую блондинку в частном порядке [2020 Amateur CamRip] Скорпион1976 Скачать
4 | 0
Русское любительское видео [ 135 MB ] Юленька делает сочный минет кавалеру в домашнем порно видео [2020 Amateur CamRip 720p] Скорпион1976 Скачать
2 | 0
Зарубежные сериалы [ 6.89 GB ] Виски Кавалер / Whiskey Cavalier / Сезон: 1 / Серии: 1-13 из 13 [2019 WEB-DLRip] DUB [SDI Media] bober100 Скачать
1 | 0
Зарубежные сериалы [ 35.16 GB ] Виски Кавалер / Whiskey Cavalier / Сезон: 1 / Серии: 1-13 из 13 [2019 WEB-DL 1080p] MVO [TVShows] bober100 Скачать
1 | 0
Зарубежные сериалы [ 18.01 GB ] Виски Кавалер / Whiskey Cavalier / Сезон 1 / Серии 1-13 из 13 [2019 WEB-DL 720p] [MVO] killermax2013 Скачать
1 | 0
Зарубежные сериалы [ 34.36 GB ] Виски Кавалер / Whiskey Cavalier / Сезон: 1 / Серии: 1-13 из 13 [2019 WEB-DL 1080p] killermax2013 Скачать
1 | 0
Зарубежные сериалы [ 6.76 GB ] Виски Кавалер / Whiskey Cavalier / Сезон: 1 / Серии: 1-13 из 13 [2019 WEB-DLRip] MVO [Jaskier] bober100 Скачать
1 | 0

28-11-2019 20:33  

Отключить всю рекламу на сайте

12-10-2018 14:51 Кавалерия Скачать торрент  

Добро пожаловать на мой сайт. Ссылка у меня в Профиле! pb.wtf



    Дорогой пользователь! Огромная просьба, поблагодарите релизера, оцените раздачу и оставьте свои комментарий, если Вы скачали Кавалерия через торрент бесплатно! Внесите свою лепту в развитие PiratBit!
    Комментировать посты могут только пользователи прошедшие не сложную регистрацию
    Показать сообщения:    

    Кавалерия через торрент
    Скачать бесплатно Кавалерия
    Кавалерия скачать торрент
    Кавалерия смотреть онлайн
    Cкачать фильм Кавалерия бесплатно
    Кавалерия скачать торрент в хорошем качестве
    Кавалерия смотреть онлайн бесплатно в хорошем качестве


    Вы не можете начинать темы
    Вы не можете отвечать на сообщения
    Вы не можете редактировать свои сообщения
    Вы не можете удалять свои сообщения
    Вы не можете голосовать в опросах
    Вы не можете прикреплять файлы к сообщениям
    Вы можете скачивать файлы