Ссылка на приватное зеркало всего за 1$. Внимание количество ограничено!!!

OK

1+1

iTunes

мы

OK

1

WEB-DLRip

Джокер

Пифагор

Ведьмак / The Witcher сериал

iTunes

ПШазам

ОК

Оно 2

iTunes

30
pack

Вам бонус

ВАЖНО

!!Акция!!

Alien_RageХит недели

RePack

Resident Evil 21

ИГРА 18+

pack

RePack

jed

RePack

fifa19

RePack

Assassins Creed: Odyssey

RePack

NEED FOR SPEED™ PAYBACK

4 сезон

9 сезон

Бесстыжие 9 сезон

Все сериалы

все сериалы на PB.wtf

RePack

FAR CRY 5
  

Тягач 22 / 22 Chaser (Рафаль Соколовски) [2018 г., Драма, криминал, WEB-DLRip, Любительский (многоголосый)] [Синема УС] pb.wtf

Тягач 22 через торрент pb.wtf

Размер: 1.37 GB | Добавлен: 1 год 3 мес. назад | Торрент скачан:73 раза
Скачать  

12-10-2018 16:12 Тягач 22 Скачать торрент  

Тягач 22 / 22 Chaser
Год выпуска: 2018
Страна: Канада
Жанр: Драма, криминал
Продолжительность: 01:29:38
Перевод: Любительский (многоголосый) | Синема УС
Субтитры: Отсутствуют

Режиссер: Рафаль Соколовски

rating

В ролях: Джек Фултон, Брайан Дж. Смит, Каньехтио Хорн, Шон Бенсон, Рауль Трухильо, Роб Арчер, Том Эллисон, Камилла Стоппс, Джон Капелос, Аарон Эшмор

Описание: Главный герой фильма - молодой парень, который работает водителем тягача-эвакуатора. Он заработал достойную репутацию благодаря своим принципам. Но парень мечтает прилично заработать, чтобы его семья ни в чем не нуждалась. Поэтому он ввязывается в смертельно опасную игру, исход которой непредсказуем...

Качество: WEB-DLRip
Формат: AVI
Видео кодек: XviD
Аудио кодек: AC3
Видео: XviD, 720x400 , 23.9fps, 1790 Kbps
Аудио#1: AC3 , 2 ch , 48 kHz , 384 kbps
скриншот   скриншот   скриншот   скриншот  

Общее
Полное имя : D:22.Chaser.2018.P.WEB-DLRip.14OOMB_KOSHARA.avi
Формат : AVI
Формат/Информация : Audio Video Interleave
Размер файла : 1,37 Гбайт
Продолжительность : 1 ч. 29 м.
Общий поток : 2183 Кбит/сек
Программа кодирования : VirtualDubMod 1.5.10.2 (build 2540/release)
Библиотека кодирования : VirtualDubMod build 2540/release

Видео
Идентификатор : 0
Формат : MPEG-4 Visual
Профиль формата : Advanced Simple@L5
Параметр BVOP формата : 2
Параметр QPel формата : Нет
Параметр GMC формата : Без точки перехода
Параметр матрицы формата : Выборочная
Идентификатор кодека : XVID
Идентификатор кодека/Подсказка : XviD
Продолжительность : 1 ч. 29 м.
Битрейт : 1790 Кбит/сек
Ширина : 720 пикселей
Высота : 400 пикселей
Соотношение сторон : 16:9
Частота кадров : 23,976 кадра/сек
Цветовое пространство : YUV
Субдискретизация насыщенности : 4:2:0
Битовая глубина : 8 бит
Тип развёртки : Прогрессивная
Метод сжатия : С потерями
Бит/(Пиксели*Кадры) : 0.259
Размер потока : 1,12 Гбайт (82%)
Библиотека кодирования : XviD 1.2.1 (UTC 2008-12-04)

Аудио
Идентификатор : 1
Формат : AC-3
Формат/Информация : Audio Coding 3
Расширение режима : CM (complete main)
Параметр Endianness формата : Big
Идентификатор кодека : 2000
Продолжительность : 1 ч. 29 м.
Вид битрейта : Постоянный
Битрейт : 384 Кбит/сек
Каналы : 2 канала
Расположение каналов : Front: L R
Частота : 48,0 КГц
Битовая глубина : 16 бит
Метод сжатия : С потерями
Размер потока : 246 Мбайт (18%)
Выравнивание : Разделение по промежуткам
Продолжительность промежутка : 42 мс. (1,00 видеокадр)
Время предзагрузки промежутка : 500 мс.

pb.wtf



Скачать Тягач 22 через торрент http://pic1.kartinco.top/images/11/ppbml.jpg Скачать фильм Тягач 22 через торрент бесплантно в хорошем качестве Описание: Главный герой фильма - молодой парень, который работает водителем тягача-эвакуатора. Он заработал достойную репутацию благодаря ... 10 10 6
Торрент: Зарегистрирован [2018-10-12 16:12] · скачан: 73 раз
Статус: T временная
Размер: 1.37 GB
Как cкачать? Как скачать Тягач 22 через торрент | qTorrent

% Раздел Тема Автор DL S | L
T Фильмы (мультфильмы) cо спонсором показа (Новинки AVI/MKV) [ 3 GB ] Тягач 22 / 22 Chaser [2018 WEB-DL 720p] MVO ["Синема УС"] bober100 Скачать
1 | 0

28-11-2019 20:33  

Отключить всю рекламу на сайте

    Дорогой пользователь! Огромная просьба, поблагодарите релизера, оцените раздачу и оставьте свои комментарий, если Вы скачали Тягач 22 через торрент бесплатно! Внесите свою лепту в развитие PiratBit!
    Комментировать посты могут только пользователи прошедшие не сложную регистрацию
    Показать сообщения:    

    Тягач 22 через торрент
    Скачать бесплатно Тягач 22
    Тягач 22 скачать торрент
    Тягач 22 смотреть онлайн
    Cкачать фильм Тягач 22 бесплатно
    Тягач 22 скачать торрент в хорошем качестве
    Тягач 22 смотреть онлайн бесплатно в хорошем качестве


    Вы не можете начинать темы
    Вы не можете отвечать на сообщения
    Вы не можете редактировать свои сообщения
    Вы не можете удалять свои сообщения
    Вы не можете голосовать в опросах
    Вы не можете прикреплять файлы к сообщениям
    Вы можете скачивать файлы