2 сезон

iTunes

WEBRip

1

2 сезон

iTunes

1 сезон

1 сезон

RePack

30

Новинка

ВАЖНО

ИГРА 18+

pack

RePack

MK11
pack

Легкие деньги

RePack

jed

RePack

fifa19

RePack

RDR2

RePack

NEED FOR SPEED™ PAYBACK

4 сезон

9 сезон

Бесстыжие 9 сезон

Все сериалы

все сериалы на PB.wtf

RePack

FAR CRY 5

Anonymous, доброй ночи, мы не успеваем собрать деньги на оплату серверов за февраль, помогите нам пожалуйста в это трудное время. В качестве благодарности мы отключим Вам всю рекламу на сайте (укажите свой ник в строку Ваше имя)!

×
  
Magnet ссылка

Чёрные воды / Black Water (Павел Патрики) [2018, боевик, BDRip 720p] DUB [Line] pb.wtf

Чёрные воды через торрент pb.wtf

Размер: 5.55 GB | Добавлен: 2 года 4 мес. назад | Торрент скачан:48 раз
Скачать  

12-10-2018 18:03 Чёрные воды Скачать торрент  

Чёрные воды / Black Water
Год выпуска: 2018
Страна: США, Канада
Жанр: боевик
Продолжительность: 01:47:19
Перевод: Дублированный | Line
Субтитры: отсутствуют

Режиссер: Павел Патрики

rating

В ролях:

Аарон О Коннелл, Дольф Лундгрен, Жан-Клод Ван Дамм, Пэтрик Килпэтрик, Ал Сапиенца, Джасмин Уолтц, Джон Пози, Кристофер Ван Варенберг, Кортни Би Турк,

Описание:

Глубоко законспирированный агент под прикрытием приходит в себя на подводной лодке ЦРУ.

Качество: BDRip 720p
Формат: MKV

Видео: 6952 kb/s, 1280x536
Аудио#1: Русский (AC3, 2 ch, 448 Кбит/с)
скриншот  скриншот  скриншот  

Общее
Уникальный идентификатор : 237063088020338124703403893134184802630 (0xB258B0A35D079B578F7ED6279969E946)
Полное имя : D:\Black.Water.2O18.D.BDRip.72Op_KOSHARA.mkv
Формат : Matroska
Версия формата : Version 2
Размер файла : 5,55 Гбайт
Продолжительность : 1 ч. 47 м.
Режим общего битрейта : Переменный
Общий поток : 7401 Кбит/сек
Дата кодирования : UTC 2018-10-12 09:07:52
Программа кодирования : mkvmerge v8.3.0 ('Over the Horizon') 64bit
Библиотека кодирования : libebml v1.3.1 + libmatroska v1.4.2

Видео
Идентификатор : 1
Формат : AVC
Формат/Информация : Advanced Video Codec
Профиль формата : High@L4.1
Параметр CABAC формата : Да
Параметр RefFrames формата : 4 кадра
Идентификатор кодека : V_MPEG4/ISO/AVC
Продолжительность : 1 ч. 47 м.
Вид битрейта : Переменный
Битрейт : 6952 Кбит/сек
Максимальный битрейт : 7500 Кбит/сек
Ширина : 1280 пикселей
Высота : 536 пикселей
Соотношение сторон : 2,40:1
Режим частоты кадров : Постоянный
Частота кадров : 23,976 (24000/1001) кадра/сек
Стандарт вещания : Component
Цветовое пространство : YUV
Субдискретизация насыщенности : 4:2:0
Битовая глубина : 8 бит
Тип развёртки : Прогрессивная
Бит/(Пиксели*Кадры) : 0.414
Размер потока : 5,10 Гбайт (92%)
Default : Да
Forced : Нет
Цветовой диапазон : Limited
Основные цвета : BT.709
Характеристики трансфера : BT.709
Коэффициенты матрицы : BT.709

Аудио
Идентификатор : 2
Формат : AC-3
Формат/Информация : Audio Coding 3
Расширение режима : CM (complete main)
Параметр Endianness формата : Big
Идентификатор кодека : A_AC3
Продолжительность : 1 ч. 47 м.
Вид битрейта : Постоянный
Битрейт : 448 Кбит/сек
Каналы : 2 канала
Расположение каналов : Front: L R
Частота : 48,0 КГц
Частота кадров : 31,250 кадров/сек (1536 spf)
Метод сжатия : С потерями
Размер потока : 344 Мбайт (6%)
Default : Да
Forced : Нет

pb.wtf



Скачать Чёрные воды через торрент https://pic1.kartinco.top/images/11/toinz.jpg Скачать фильм Чёрные воды через торрент бесплантно в хорошем качестве Описание: Глубоко законспирированный агент под прикрытием приходит в себя на подводной лодке ... 10 10 4
Торрент: Зарегистрирован [2018-10-12 18:03] · скачан: 48 раз
Статус: # сомнительно
Размер: 5.55 GB
Как cкачать? Как скачать Чёрные воды через торрент | UTorrent

% Раздел Тема Автор DL S | L
Фильмы 2018 [DVDrip, WEB-DLRip, HDrip] (DUB, MVO) [ 1.42 GB ] Чёрные воды / Black Water [2018 BDRip] MVO Twi7ter Скачать
1 | 0
Фильмы [HD 720p, 1080p] (Хороший звук DUB, MVO) [ 12 GB ] Чёрные воды / Black Water [2018 BDRip 1080p] [MVO] () + [MVO] + [DVO] killermax2013 Скачать
2 | 0
# Фильмы (мультфильмы) cо спонсором показа (Новинки AVI/MKV) [ 9.58 GB ] Чёрные воды / Black Water [2018 BDRip 1080p] DUB [Line] bober100 Скачать
1 | 0
Фильмы 2018 [DVDrip, WEB-DLRip, HDrip] (DUB, MVO) [ 1.46 GB ] Чёрные воды / Black Water [2018 BDRip] MVO bober100 Скачать
1 | 0
T Фильмы 2018 [DVDrip, WEB-DLRip, HDrip] (DUB, MVO) [ 1.98 GB ] Чёрные воды / Black Water [2018 BDRip-AVC] MVO [HDRezka Studio] - ExKinoRay Enigma2010 Скачать
1 | 0
T Фильмы [HD 720p, 1080p] (Хороший звук DUB, MVO) [ 5.26 GB ] Чёрные воды / Black Water [2018 BDRip 720p] MVO [HDRezka Studio] bober100 Скачать
1 | 0
T Фильмы 2018 [DVDrip, WEB-DLRip, HDrip] (DUB, MVO) [ 1.46 GB ] Чёрные воды / Black Water [2018 BDRip] MVO [HDRezka Studio] bober100 Скачать
1 | 0

28-11-2019 20:33  

Отключить всю рекламу на сайте

12-10-2018 21:01 Чёрные воды Скачать торрент  

х ня наверно полнаяpb.wtf



    Дорогой пользователь! Огромная просьба, поблагодарите релизера, оцените раздачу и оставьте свои комментарий, если Вы скачали Чёрные воды через торрент бесплатно! Внесите свою лепту в развитие PiratBit!
    Комментировать посты могут только пользователи прошедшие не сложную регистрацию
    Показать сообщения:    

    Чёрные воды через торрент
    Скачать бесплатно Чёрные воды
    Чёрные воды скачать торрент
    Чёрные воды смотреть онлайн
    Cкачать фильм Чёрные воды бесплатно
    Чёрные воды скачать торрент в хорошем качестве
    Чёрные воды смотреть онлайн бесплатно в хорошем качестве


    Вы не можете начинать темы
    Вы не можете отвечать на сообщения
    Вы не можете редактировать свои сообщения
    Вы не можете удалять свои сообщения
    Вы не можете голосовать в опросах
    Вы не можете прикреплять файлы к сообщениям
    Вы можете скачивать файлы