Ссылка на приватное зеркало всего за 1$. Внимание количество ограничено!!!

OK

1+1

iTunes

мы

OK

1

WEB-DLRip

Джокер

Пифагор

Ведьмак / The Witcher сериал

iTunes

ПШазам

ОК

Оно 2

iTunes

30
pack

Вам бонус

ВАЖНО

!!Акция!!

Alien_RageХит недели

RePack

Resident Evil 21

ИГРА 18+

pack

RePack

jed

RePack

fifa19

RePack

Assassins Creed: Odyssey

RePack

NEED FOR SPEED™ PAYBACK

4 сезон

9 сезон

Бесстыжие 9 сезон

Все сериалы

все сериалы на PB.wtf

RePack

FAR CRY 5
  

Чёрные воды / Black Water (Павел Патрики) [2018, боевик, BDRip 1080p] DUB [Line] pb.wtf

Чёрные воды через торрент pb.wtf

Размер: 9.58 GB | Добавлен: 1 год 3 мес. назад | Торрент скачан:75 раз
Скачать  

12-10-2018 18:03 Чёрные воды Скачать торрент  

Чёрные воды / Black Water
Год выпуска: 2018
Страна: США, Канада
Жанр: боевик
Продолжительность: 01:47:19
Перевод: Дублированный | Line
Субтитры: отсутствуют

Режиссер: Павел Патрики

rating

В ролях:

Аарон О Коннелл, Дольф Лундгрен, Жан-Клод Ван Дамм, Пэтрик Килпэтрик, Ал Сапиенца, Джасмин Уолтц, Джон Пози, Кристофер Ван Варенберг, Кортни Би Турк,

Описание:

Глубоко законспирированный агент под прикрытием приходит в себя на подводной лодке ЦРУ.

Качество: BDRip 1080p
Формат: MKV

Видео: h.264, 12.3 mb/s, 1920x804
Аудио: Русский (AC3, 2 ch, 448 Кбит/с)
скриншот  скриншот  скриншот  

Общее
Уникальный идентификатор : 218304018083459376882803615455366596502 (0xA43BD315196728719031015CCDABC796)
Полное имя : D:\Black.Water.2O18.D.BDRip.1O8Op_KOSHARA.mkv
Формат : Matroska
Версия формата : Version 2
Размер файла : 9,58 Гбайт
Продолжительность : 1 ч. 47 м.
Режим общего битрейта : Переменный
Общий поток : 12,8 Мбит/сек
Дата кодирования : UTC 2018-10-12 09:09:12
Программа кодирования : mkvmerge v8.3.0 ('Over the Horizon') 64bit
Библиотека кодирования : libebml v1.3.1 + libmatroska v1.4.2

Видео
Идентификатор : 1
Формат : AVC
Формат/Информация : Advanced Video Codec
Профиль формата : High@L4.1
Параметр CABAC формата : Да
Параметр RefFrames формата : 4 кадра
Идентификатор кодека : V_MPEG4/ISO/AVC
Продолжительность : 1 ч. 47 м.
Вид битрейта : Переменный
Битрейт : 12,3 Мбит/сек
Максимальный битрейт : 13,7 Мбит/сек
Ширина : 1920 пикселей
Высота : 804 пикселя
Соотношение сторон : 2,40:1
Режим частоты кадров : Постоянный
Частота кадров : 23,976 (24000/1001) кадра/сек
Стандарт вещания : Component
Цветовое пространство : YUV
Субдискретизация насыщенности : 4:2:0
Битовая глубина : 8 бит
Тип развёртки : Прогрессивная
Бит/(Пиксели*Кадры) : 0.326
Размер потока : 9,05 Гбайт (95%)
Default : Да
Forced : Нет
Цветовой диапазон : Limited
Основные цвета : BT.709
Характеристики трансфера : BT.709
Коэффициенты матрицы : BT.709

Аудио
Идентификатор : 2
Формат : AC-3
Формат/Информация : Audio Coding 3
Расширение режима : CM (complete main)
Параметр Endianness формата : Big
Идентификатор кодека : A_AC3
Продолжительность : 1 ч. 47 м.
Вид битрейта : Постоянный
Битрейт : 448 Кбит/сек
Каналы : 2 канала
Расположение каналов : Front: L R
Частота : 48,0 КГц
Частота кадров : 31,250 кадров/сек (1536 spf)
Метод сжатия : С потерями
Размер потока : 344 Мбайт (4%)
Default : Да
Forced : Нет

pb.wtf



Скачать Чёрные воды через торрент http://pic1.kartinco.top/images/11/toinz.jpg Скачать фильм Чёрные воды через торрент бесплантно в хорошем качестве Описание: Глубоко законспирированный агент под прикрытием приходит в себя на подводной лодке ... 10 10 4
Торрент: Зарегистрирован [2018-10-12 18:03] · скачан: 75 раз
Статус: # сомнительно
Размер: 9.58 GB
Как cкачать? Как скачать Чёрные воды через торрент | qTorrent

% Раздел Тема Автор DL S | L
T Фильмы (мультфильмы) cо спонсором показа (Новинки AVI/MKV) [ 1.37 GB ] Чёрные воды / Black Water [2018 HDRip] DUB [Line] bober100 Скачать
1 | 0
# Фильмы (мультфильмы) cо спонсором показа (Новинки AVI/MKV) [ 5.55 GB ] Чёрные воды / Black Water [2018 BDRip 720p] DUB [Line] bober100 Скачать
1 | 0
T Фильмы 2018 [DVDrip, WEB-DLRip, HDrip] (DUB, MVO) [ 1.98 GB ] Чёрные воды / Black Water [2018 BDRip-AVC] MVO [HDRezka Studio] - ExKinoRay Enigma2010 Скачать
1 | 0
T Фильмы [HD 720p, 1080p] (Хороший звук DUB, MVO) [ 5.26 GB ] Чёрные воды / Black Water [2018 BDRip 720p] MVO [HDRezka Studio] bober100 Скачать
1 | 0
T Фильмы 2018 [DVDrip, WEB-DLRip, HDrip] (DUB, MVO) [ 1.46 GB ] Чёрные воды / Black Water [2018 BDRip] MVO [HDRezka Studio] bober100 Скачать
3 | 0
T Фильмы 2019-2020 (Звук TS, Cam, VO, DVO) [ 1.98 GB ] Чёрные воды / Black Water [2018 BDRip-AVC] DVO [HiWay Grope] - ExKinoRay Enigma2010 Скачать
2 | 0
T Фильмы (Blu-ray, BD-Remux, HDDVD) [ 24.22 GB ] Чёрные воды / Black Water [2018 BD Remux 1080p] DVO [HiWay Grope] bober100 Скачать
1 | 0

28-11-2019 20:33  

Отключить всю рекламу на сайте

13-10-2018 05:01 Чёрные воды Скачать торрент  

в бой идут одни старикиpb.wtf



13-10-2018 10:50 Чёрные воды Скачать торрент  

без рекламы когда будетpb.wtf



14-10-2018 14:33 Чёрные воды Скачать торрент  

опять внуки ипотеку взяли? pb.wtf



    Дорогой пользователь! Огромная просьба, поблагодарите релизера, оцените раздачу и оставьте свои комментарий, если Вы скачали Чёрные воды через торрент бесплатно! Внесите свою лепту в развитие PiratBit!
    Комментировать посты могут только пользователи прошедшие не сложную регистрацию
    Показать сообщения:    

    Чёрные воды через торрент
    Скачать бесплатно Чёрные воды
    Чёрные воды скачать торрент
    Чёрные воды смотреть онлайн
    Cкачать фильм Чёрные воды бесплатно
    Чёрные воды скачать торрент в хорошем качестве
    Чёрные воды смотреть онлайн бесплатно в хорошем качестве


    Вы не можете начинать темы
    Вы не можете отвечать на сообщения
    Вы не можете редактировать свои сообщения
    Вы не можете удалять свои сообщения
    Вы не можете голосовать в опросах
    Вы не можете прикреплять файлы к сообщениям
    Вы можете скачивать файлы