Ссылка на приватное зеркало нашего сайта всего за 1$. Внимание количество ограничено!!!

2 сезон

iTunes

1 сезон

1

2 сезон

2 сезон

iTunes

1 сезон

RePack

30

Новинка

ВАЖНО

ИГРА 18+

pack

RePack

MK11
pack

Забери бонус

RePack

jed

!!Акция!!

Alien_Rage

RePack

fifa19

RePack

Assassins Creed: Odyssey

RePack

NEED FOR SPEED™ PAYBACK

4 сезон

9 сезон

Бесстыжие 9 сезон

Все сериалы

все сериалы на PB.wtf

RePack

FAR CRY 5
  

Титаны / Titans / Сезон: 1 / Серии: 1-11 из 11 (Брэд Андерсон, Грант Харви, Джон Фоусет) [2018, фантастика, фэнтези, боевик, приключения, WEBRip 1080p] MVO [Baibako] pb.wtf

Титаны через торрент pb.wtf

Размер: 22.64 GB | Добавлен: 1 год 11 мес. назад | Торрент скачан:29 раз
Скачать  

12-10-2018 19:08 Титаны Скачать торрент  

Титаны / Titans
«***»
Производство: США
Год выпуска: 2018
Жанр: фантастика, фэнтези, боевик, приключения
Продолжительность: ~ 00:50:00 серия
Премьера (мир): 7 октября 2018
Перевод: Профессиональный (многоголосый закадровый) |
Субтитры: английские (SDH)

Режиссёр: Брэд Андерсон, Грант Харви, Джон Фоусет

В ролях:

Брентон Туэйтс, Тиган Крофт, Анна Диоп, Линдси Горт, Минка Келли, Райан Поттер, Алан Ричсон, Каррен Уолтерс, Шеймус Девер, Бруно Бичир

Описание:

В надежде остановить своего отца — древнего демона Тригона — обладательница невероятных способностей девушка Рэйвен обращается за помощью к Робину. Бывший напарник Бэтмена теперь сам вершит правосудие на улицах Готэма, но, чтобы остановить зло, Рэйвен и Робину понадобится подмога.

rating

Качество: WEBRip 1080p
Формат: MKV

Видео: AVC, 1920x1080 (1.778), 23.976 fps, ~ 5512 kbps
Аудио Rus: AC-3, 48 kHz, 2 ch, 384 kbps |Baibako|
Аудио Eng: AC-3, 48 kHz, 2 ch, 384 kbps |Original|
скриншот   скриншот   скриншот   скриншот   скриншот  

Общее
Уникальный идентификатор : 260699716839385485573055201810643333966 (0xC420F069DE53BFF9ADF44A72034EB34E)
Полное имя : D:\Titans.s01.HD1080p.WEBRip.Rus.Eng.BaibaKo.tv\Titans.s01e01.HD1080p.WEBRip.Rus.Eng.BaibaKo.tv.mkv
Формат : Matroska
Версия формата : Version 4 / Version 2
Размер файла : 2,13 Гбайт
Продолжительность : 51 м. 26 с.
Общий поток : 5927 Кбит/сек
Дата кодирования : UTC 2018-10-12 14:48:45
Программа кодирования : mkvmerge v26.0.0 ('In The Game') 64-bit
Библиотека кодирования : libebml v1.3.6 + libmatroska v1.4.9

Видео
Идентификатор : 1
Формат : AVC
Формат/Информация : Advanced Video Codec
Профиль формата : High@L4
Параметр CABAC формата : Да
Параметр RefFrames формата : 4 кадра
Идентификатор кодека : V_MPEG4/ISO/AVC
Продолжительность : 51 м. 26 с.
Битрейт : 5156 Кбит/сек
Ширина : 1920 пикселей
Высота : 1080 пикселей
Соотношение сторон : 16:9
Режим частоты кадров : Постоянный
Частота кадров : 23,976 (24000/1001) кадра/сек
Цветовое пространство : YUV
Субдискретизация насыщенности : 4:2:0
Битовая глубина : 8 бит
Тип развёртки : Прогрессивная
Бит/(Пиксели*Кадры) : 0.104
Размер потока : 1,85 Гбайт (87%)
Библиотека кодирования : x264 core 152 r2851 ba24899
Настройки программы : cabac=1 / ref=3 / deblock=1:0:0 / analyse=0x3:0x113 / me=hex / subme=7 / psy=1 / psy_rd=1.00:0.00 / mixed_ref=1 / me_range=16 / chroma_me=1 / trellis=1 / 8x8dct=1 / cqm=0 / deadzone=21,11 / fast_pskip=1 / chroma_qp_offset=-2 / threads=30 / lookahead_threads=5 / sliced_threads=0 / nr=0 / decimate=1 / interlaced=0 / bluray_compat=0 / constrained_intra=0 / bframes=3 / b_pyramid=2 / b_adapt=1 / b_bias=0 / direct=1 / weightb=1 / open_gop=0 / weightp=2 / keyint=240 / keyint_min=23 / scenecut=40 / intra_refresh=0 / rc_lookahead=40 / rc=crf / mbtree=1 / crf=18.0 / qcomp=0.60 / qpmin=0 / qpmax=69 / qpstep=4 / ip_ratio=1.40 / aq=1:1.00
Default : Нет
Forced : Нет

Аудио #1
Идентификатор : 2
Формат : AC-3
Формат/Информация : Audio Coding 3
Расширение режима : CM (complete main)
Параметр Endianness формата : Big
Идентификатор кодека : A_AC3
Продолжительность : 51 м. 26 с.
Вид битрейта : Постоянный
Битрейт : 384 Кбит/сек
Каналы : 2 канала
Расположение каналов : Front: L R
Частота : 48,0 КГц
Частота кадров : 31,250 кадров/сек (1536 spf)
Метод сжатия : С потерями
Размер потока : 141 Мбайт (6%)
Язык : Russian
Default : Да
Forced : Нет

Аудио #2
Идентификатор : 3
Формат : AC-3
Формат/Информация : Audio Coding 3
Расширение режима : CM (complete main)
Параметр Endianness формата : Big
Идентификатор кодека : A_AC3
Продолжительность : 51 м. 26 с.
Вид битрейта : Постоянный
Битрейт : 384 Кбит/сек
Каналы : 2 канала
Расположение каналов : Front: L R
Частота : 48,0 КГц
Частота кадров : 31,250 кадров/сек (1536 spf)
Метод сжатия : С потерями
Размер потока : 141 Мбайт (6%)
Язык : English
Default : Нет
Forced : Нет

Раздача ведётся путём добавления новых серий; при каждом добавлении создаётся новый торрент.
Чтобы начать докачку новой серии, пользователям необходимо сделать следующее:
1. остановить скачивание,
2. удалить старый торрент у себя из клиента (старые серии удалять не надо),
3. скачать новый торрент и запустить его у себя в клиенте вместо старого, при этом указать клиенту путь в старую папку, куда и должно происходить скачивание новых серий.

Ваш клиент при этом должен произвести хеширование (проверку) старой папки (если не производит сам - помогите ему сделать это), и будет докачивать только те серии которых у вас ещё нет. Старые серии при этом не удаляются, а продолжают раздаваться!

Eсли вы уже удалили старые серии, то предотвратить повторную закачку старых серий можно, отжав галочку в соответствующих местах при запуске нового торрента. По возможности, желательно не удалять старые серии как можно дольше, чтобы релизёр не столько продолжал раздавать старые серии, а смог сконцентрироваться на новых.

Совет для тех, кто не хочет ждать перехеширования:
Создайте ещё одну папку рядом с папкой сериала (рядом, а не в ней!!!). Каждую новую серию после удачной загрузки копируйте в новую папку так чтобы ваша основная папка всегда была пуста. Когда ваш новый торрент предложит вам закачать все файлы, выберете только последнюю. Для сидирования же укажите адрес новой папки.

Как закачать отдельный файл из торрента или докачать ранее пропущенные файлы торрента!
pb.wtf



Скачать Титаны через торрент http://img15.lostpic.net/2018/12/24/6c67186c6e8c3bf1b1e0454766d3825b.jpg Скачать фильм Титаны через торрент бесплантно в хорошем качестве Описание:В надежде остановить своего отца — древнего демона Тригона — обладательница невероятных способностей девушка Рэйвен обращается за ... 8.9 10 8
Info! Золотая раздача, скачанное не засчитывается.
Торрент: Зарегистрирован [2018-12-24 01:56] · скачан: 29 раз
Статус: √ проверено
Размер: 22.64 GB
Как cкачать? Как скачать Титаны через торрент | qTorrent

% Раздел Тема Автор DL S | L
Зарубежные сериалы [ 18.63 GB ] Титаны / Titans / Сезон: 1 / Серии: 1-11 из 11 [2018 WEBRip 1080p] MVO [NewStudio] bober100 Скачать
1 | 0
Зарубежные сериалы [ 83.99 GB ] Титаны / Titans / Сезон: 1 / Серии: 1-11 из 11 [2018 BD Remux 1080p] MVO [LostFilm] bober100 Скачать
1 | 0
Зарубежные сериалы [ 11.65 GB ] Титаны / Titans / Сезон: 1 / Серии: 1-11 из 11 [2018 WEB-DL 720p] [MVO] killermax2013 Скачать
1 | 0
Зарубежные сериалы [ 16.42 GB ] Титаны / Titans / Сезон: 1 / Серии: 1-11 из 11 [2018 WEB-DL 1080p] [MVO] killermax2013 Скачать
1 | 0
Зарубежные сериалы [ 7.69 GB ] Титаны / Titans / Сезон: 1 / Серии: 1-11 из 11 [2018 WEB-DLRip] [MVO] killermax2013 Скачать
1 | 0
Зарубежные сериалы [ 18.63 GB ] Титаны / Titans / Сезон: 1 / Серии: 1-11 из 11 [2018 WEB-DL 1080p] [MVO] killermax2013 Скачать
1 | 0
Зарубежные сериалы [ 26.75 GB ] Титаны / Titans / Сезон: 1 / Серии: 1-11 из 11 [2018 WEBRip 1080p] MVO [Lostfilm] bober100 Скачать
1 | 0

28-11-2019 20:33  

Отключить всю рекламу на сайте

    Дорогой пользователь! Огромная просьба, поблагодарите релизера, оцените раздачу и оставьте свои комментарий, если Вы скачали Титаны через торрент бесплатно! Внесите свою лепту в развитие PiratBit!
    Комментировать посты могут только пользователи прошедшие не сложную регистрацию
    Показать сообщения:    

    Титаны через торрент
    Скачать бесплатно Титаны
    Титаны скачать торрент
    Титаны смотреть онлайн
    Cкачать фильм Титаны бесплатно
    Титаны скачать торрент в хорошем качестве
    Титаны смотреть онлайн бесплатно в хорошем качестве


    Вы не можете начинать темы
    Вы не можете отвечать на сообщения
    Вы не можете редактировать свои сообщения
    Вы не можете удалять свои сообщения
    Вы не можете голосовать в опросах
    Вы не можете прикреплять файлы к сообщениям
    Вы можете скачивать файлы