Ссылка на приватное зеркало нашего сайта всего за 1$. Внимание количество ограничено!!!

2 сезон

iTunes

1 сезон

1

2 сезон

2 сезон

iTunes

1 сезон

RePack

30

Новинка

ВАЖНО

ИГРА 18+

pack

RePack

MK11
pack

Забери бонус

RePack

jed

!!Акция!!

Alien_Rage

RePack

fifa19

RePack

Assassins Creed: Odyssey

RePack

NEED FOR SPEED™ PAYBACK

4 сезон

9 сезон

Бесстыжие 9 сезон

Все сериалы

все сериалы на PB.wtf

RePack

FAR CRY 5
  

Человек в высоком замке / The Man in the High Castle / Сезон: 3 / Серии: 1-10 (10) (Дэниэл Персивал) [2018, фантастика, триллер, драма, WEBRip 1080p] [MVO] (AlexFilm) pb.wtf

Человек в высоком замке через торрент pb.wtf

Размер: 22.84 GB | Добавлен: 2 года назад | Торрент скачан:7 раз
Скачать  

12-10-2018 20:27 Человек в высоком замке Скачать торрент  



Человек в высоком замке / The Man in the High Castle


Год выпуска: 2018
Страна: США
Жанр: фантастика, триллер, драма
Продолжительность: 1x ~ 00:50:00
Перевод: Профессиональный (многоголосый закадровый) (AlexFilm)
Режиссёры: Дэниэл Персивал, Брэд Андерсон, Карин Кусама

В ролях: Алекса Давалос, Руперт Эванс, Люк Клеинтенк, Джоэль де ла Фуэнте, Кэри-Хироюки Тагава, Руфус Сьюэлл, Майкл Рисполи, Джеффри Блейк, Бернхард Форхер
Описание: Германия и Япония выиграли Вторую мировую. Америка разделена пополам между победителями, но, разумеется, спустя много лет после поражения (действие разворачивается в 1962-м) сознательные американцы организуют глубоко засекреченное подполье. Занимаются повстанцы в основном распространением странной кинохроники, на которой показана победа в войне союзнических войск. Именно с этими пленками в руках в нейтральную зону между двумя Америками отправляются Джо и Джулс — юноша и девушка, пробующие свои силы в борьбе с режимом.
Релиз:

Перевод: Константин Кривоногов
Монтаж и сведение звука: Михаил Шорыгин
Роли озвучивали:
    • Екатерина Муравицкая
    • Наталья Ланц
    • Петр Гланц
    • Кирилл Патрино
    • Алексей Никитин
    • Михаил Шорыгин
    • Михаил Федосеев

Качество: WEBRip 1080p
Формат: MKV
Видео кодек: AVC
Аудио кодек: AC3
Видео: 1920x1080, 23.976 fps, 7000 kbps avg
Аудио Rus: 48 kHz, AC3 Dolby Digital, 3/2 (L,C,R,l,r) + LFE ch, ~384.00 kbps
Аудио Eng: 48 kHz, AC3 Dolby Digital, 3/2 (L,C,R,l,r) + LFE ch, ~384.00 kbps
Субтитры:
скриншот  скриншот  скриншот  
General
Unique ID : 151573923468802351664261407513074029916 (0x720813679BA5AAA7DB01AC373125555C)
Complete name : E:\The Man in the High Castle - Season 3 (AlexFilm) WEBRip 1080p\The.Man.in.the.High.Castle.s03e01.WEBRip.1080p.Rus.Eng.AlexFilm.mkv
Format : Matroska
Format version : Version 4 / Version 2
File size : 3.17 GiB
Duration : 1 h 10 min
Overall bit rate mode : Variable
Overall bit rate : 6 470 kb/s
Encoded date : UTC 2018-10-08 08:59:36
Writing application : mkvmerge v27.0.0 ('Metropolis') 64-bit
Writing library : libebml v1.3.6 + libmatroska v1.4.9

Video
ID : 1
Format : AVC
Format/Info : Advanced Video Codec
Format profile : High@L4
Format settings : CABAC / 4 Ref Frames
Format settings, CABAC : Yes
Format settings, RefFrames : 4 frames
Codec ID : V_MPEG4/ISO/AVC
Duration : 1 h 10 min
Bit rate mode : Variable
Bit rate : 5 573 kb/s
Maximum bit rate : 15.0 Mb/s
Width : 1 920 pixels
Height : 1 080 pixels
Display aspect ratio : 16:9
Frame rate mode : Constant
Frame rate : 23.976 (24000/1001) FPS
Color space : YUV
Chroma subsampling : 4:2:0
Bit depth : 8 bits
Scan type : Progressive
Bits/(Pixel*Frame) : 0.112
Stream size : 2.73 GiB (86%)
Default : Yes
Forced : No
Color range : Limited
Color primaries : BT.709
Transfer characteristics : BT.709
Matrix coefficients : BT.709

Audio #1
ID : 2
Format : AC-3
Format/Info : Audio Coding 3
Format settings, Endianness : Big
Codec ID : A_AC3
Duration : 1 h 10 min
Bit rate mode : Constant
Bit rate : 384 kb/s
Channel(s) : 6 channels
Channel positions : Front: L C R, Side: L R, LFE
Sampling rate : 48.0 kHz
Frame rate : 31.250 FPS (1536 SPF)
Bit depth : 16 bits
Compression mode : Lossy
Stream size : 192 MiB (6%)
Title : DD 5.1 AlexFilm
Language : Russian
Service kind : Complete Main
Default : Yes
Forced : No

Audio #2
ID : 3
Format : AC-3
Format/Info : Audio Coding 3
Format settings, Endianness : Big
Codec ID : A_AC3
Duration : 1 h 10 min
Bit rate mode : Constant
Bit rate : 384 kb/s
Channel(s) : 6 channels
Channel positions : Front: L C R, Side: L R, LFE
Sampling rate : 48.0 kHz
Frame rate : 31.250 FPS (1536 SPF)
Bit depth : 16 bits
Compression mode : Lossy
Stream size : 192 MiB (6%)
Title : Eng
Language : English
Service kind : Complete Main
Default : No
Forced : No
Внимание! Раздача ведётся путём добавления новых серий; при каждом добавлении создаётся новый торрент. Чтобы начать докачку новой серии, пользователям необходимо сделать следующее:
(1) остановить скачивание,
(2) удалить старый торрент у себя из клиента (старые серии удалять не надо),
(3) скачать новый торрент и запустить его у себя в клиенте вместо старого, при этом указать клиенту путь в старую папку куда и должно происходить скачивание новых серий.
Ваш клиент при этом должен произвести хеширование (проверку) старой папки (если не производит сам - помогите ему сделать это), и будет докачивать только те серии которых у вас ещё нет. Старые серии при этом не удаляются, а продолжают раздаваться!
Eсли вы уже удалили старые серии, то предотвратить повторную закачку старых серий можно, отжав галочку в соответствующих местах при запуске нового торрента. По возможности, желательно не удалять старые серии как можно дольше чтобы релизёр не столько продолжал раздавать старые серии, а смог сконцентрироваться на новых.
pb.wtf



Скачать Человек в высоком замке через торрент http://i91.fastpic.ru/big/2018/1006/de/0086ca2b0388ff49ee5d4ba36198e0de.jpg Скачать фильм Человек в высоком замке через торрент бесплантно в хорошем качестве Описание: Германия и Япония выиграли Вторую мировую. Америка разделена пополам между победителями, но, разумеется, спустя много лет после ... 6.6 10 5
Торрент: Зарегистрирован [2018-11-12 08:19] · скачан: 7 раз
Статус: √ проверено
Размер: 22.84 GB
Как cкачать? Как скачать Человек в высоком замке через торрент | qTorrent

% Раздел Тема Автор DL S | L
Фильмы с украинским озвучиванием [ 87.92 GB ] Человек в высоком замке / The Man in the High Castle / Сезон: 3 / Серии: 1-10 из 10 [2018 WEBRip 2160p] [Ukr MVO] killermax2013 Скачать
1 | 0
Зарубежные сериалы [ 25 GB ] Человек в высоком замке / The Man in the High Castle / Сезон: 3 / Серии: 1-10 из 10 [2018 WEB-DL 1080p] MVO [Lostfilm] bober100 Скачать
1 | 0
Зарубежные сериалы [ 6.21 GB ] Человек в высоком замке / The Man in the High Castle / Сезон: 3 / Серии: 1-10 из 10 [2018 WEB-DLRip] [MVO] killermax2013 Скачать
1 | 0
Зарубежные сериалы [ 22.98 GB ] Человек в высоком замке / The Man in the High Castle / Сезон: 3 / Серии: 1-10 из 10 [2018 WEB-DL 1080p] [MVO] killermax2013 Скачать
1 | 0
Зарубежные сериалы [ 87.67 GB ] Человек в высоком замке / The Man in the High Castle / Сезон: 3 / Серии: 1-10 из 10 [2018 UHD WEBRip 2160p] 2xMVO [NewStudio Baibako] bober100 Скачать
1 | 0
Зарубежные сериалы [ 6.21 GB ] Человек в высоком замке / The Man in the High Castle / Сезон: 3 / Серии: 1-10 [2018 WEBRip] [MVO] killermax2013 Скачать
1 | 0
Зарубежные сериалы [ 6.79 GB ] Человек в высоком замке / The Man in the High Castle / Сезон: 3 / Серии: 1-10 [2018 WEBRip] [MVO] killermax2013 Скачать
2 | 0

28-11-2019 20:33  

Отключить всю рекламу на сайте

    Дорогой пользователь! Огромная просьба, поблагодарите релизера, оцените раздачу и оставьте свои комментарий, если Вы скачали Человек в высоком замке через торрент бесплатно! Внесите свою лепту в развитие PiratBit!
    Комментировать посты могут только пользователи прошедшие не сложную регистрацию
    Показать сообщения:    

    Человек в высоком замке через торрент
    Скачать бесплатно Человек в высоком замке
    Человек в высоком замке скачать торрент
    Человек в высоком замке смотреть онлайн
    Cкачать фильм Человек в высоком замке бесплатно
    Человек в высоком замке скачать торрент в хорошем качестве
    Человек в высоком замке смотреть онлайн бесплатно в хорошем качестве


    Вы не можете начинать темы
    Вы не можете отвечать на сообщения
    Вы не можете редактировать свои сообщения
    Вы не можете удалять свои сообщения
    Вы не можете голосовать в опросах
    Вы не можете прикреплять файлы к сообщениям
    Вы можете скачивать файлы