Ссылка на приватное зеркало нашего сайта всего за 1$. Внимание количество ограничено!!!

2 сезон

iTunes

1 сезон

1

iTunes

iTunes

iTunes

1 сезон

RePack

30

ИГРА 18+

pack

ВАЖНО

!!Акция!!

Alien_RageХит недели

RePack

MK11
pack

Забери бонус

RePack

jed

!!Акция!!

Alien_Rage

RePack

fifa19

RePack

Assassins Creed: Odyssey

RePack

NEED FOR SPEED™ PAYBACK

4 сезон

9 сезон

Бесстыжие 9 сезон

Все сериалы

все сериалы на PB.wtf

RePack

FAR CRY 5
  

Московские тайны. Семь сестер / Серии: 1-2 из 2 (Александр Баршак) [2018, Детектив, криминал, WEB-DLRip] pb.wtf

Московские тайны. Семь сестер через торрент pb.wtf

Размер: 1.06 GB | Добавлен: 2 года назад | Торрент скачан:29 раз
Скачать  

12-10-2018 20:49 Московские тайны. Семь сестер Скачать торрент  

Московские тайны. Семь сестер Год выпуска: 2018
Страна: Россия
Жанр: Детектив, криминал
Продолжительность: ~ 00:47:00
Субтитры: отсутствуют

Режиссер: Александр Баршак



В ролях:

Алексей Макаров, Анна Старшенбаум, Евгений Пронин, Константин Соловьёв

Описание:

В прошлом прима советского балета, а ныне пожилая одинокая женщина найдена убитой у себя дома, в высотке на Котельнической набережной. Из квартиры ничего не пропало, дверь не взломана, а на оконном стекле проступают начертанные пальцами мольбы о помощи. И пока Настя Вяземская ищет корыстный мотив для этого преступления, еще один человек становится жертвой неуловимого убийцы. А вскоре выяснится, что нечто странное происходит и в остальных московских высотках. Недаром так называемые «семь сестер» связаны между собой загадочной нитью, и Насте нужно распутать эту нить до конца.

Качество: WEB-DLRip
Формат: AVI

Видео: XviD, ~ 1500 Кбит/с, 720x400
Аудио: AC3, 2 ch, 192 Кбит/с
скриншот  скриншот  скриншот  скриншот  

General
Complete name : D:\Московские тайны. Семь сестер 2018\Московские тайны.Семь сестер.e01.avi
Format : AVI
Format/Info : Audio Video Interleave
File size : 573 MiB
Duration : 44 min 36 s
Overall bit rate : 1 796 kb/s
Writing application : VirtualDubMod 1.5.10.3 | www.virtualdub-fr.org || (build 2550/release)
Writing library : VirtualDubMod build 2550/release

Video
ID : 0
Format : MPEG-4 Visual
Format profile : Advanced Simple@L5
Format settings : BVOP1
Format settings, BVOP : 1
Format settings, QPel : No
Format settings, GMC : No warppoints
Format settings, Matrix : Default (MPEG)
Codec ID : XVID
Codec ID/Hint : XviD
Duration : 44 min 36 s
Bit rate : 1 594 kb/s
Width : 720 pixels
Height : 400 pixels
Display aspect ratio : 16:9
Frame rate : 25.000 FPS
Color space : YUV
Chroma subsampling : 4:2:0
Bit depth : 8 bits
Scan type : Progressive
Compression mode : Lossy
Bits/(Pixel*Frame) : 0.221
Stream size : 509 MiB (89%)
Writing library : XviD 73

Audio
ID : 1
Format : AC-3
Format/Info : Audio Coding 3
Codec ID : 2000
Duration : 44 min 36 s
Bit rate mode : Constant
Bit rate : 192 kb/s
Channel(s) : 2 channels
Channel positions : Front: L R
Sampling rate : 48.0 kHz
Frame rate : 31.250 FPS (1536 SPF)
Bit depth : 16 bits
Compression mode : Lossy
Stream size : 61.2 MiB (11%)
Alignment : Split accross interleaves
Interleave, duration : 40 ms (1.00 video frame)
Interleave, preload duratio : 500 ms
Service kind : Complete Main

pb.wtf



Скачать Московские тайны. Семь сестер через торрент https://i79.fastpic.ru/big/2018/1012/c5/dc81b6316f0dc14244e5f14cddbc0ac5.jpg Скачать фильм Московские тайны. Семь сестер через торрент бесплантно в хорошем качестве Описание: В прошлом прима советского балета, а ныне пожилая одинокая женщина найдена убитой у себя дома, в высотке на Котельнической ... 10 10 3
Торрент: Зарегистрирован [2018-10-12 20:49] · скачан: 29 раз
Статус: √ проверено
Размер: 1.06 GB
Как cкачать? Как скачать Московские тайны. Семь сестер через торрент | qTorrent

% Раздел Тема Автор DL S | L
Наши сериалы [ 2.03 GB ] Московские тайны. Семь сестер / Серии: 1-2 из 2 [2018 WEB-DL 720p] bober100 Скачать
1 | 0
Наши сериалы [ 1.11 GB ] Московские тайны. Семь сестер / Серии: 1-2 из 2 [2018 WEB-DLRip-AVC] bober100 Скачать
1 | 0
Наши сериалы [ 3.22 GB ] Московские тайны. Семь сестер / Серии: 1-2 из 2 [2018 WEB-DL 1080p] bober100 Скачать
1 | 0
Наши сериалы [ 1.16 GB ] Московские тайны. Семь сестер / Сезон-2 / Серии: 1-2 из 2 [2018 SATRip-AVC] aleksan55 Скачать
1 | 0
Наши сериалы [ 1.13 GB ] Московские тайны. Семь сестер / Серии: 1-2 из 2 [2018 SATRip] bober100 Скачать
1 | 0

28-11-2019 20:33  

Отключить всю рекламу на сайте

    Дорогой пользователь! Огромная просьба, поблагодарите релизера, оцените раздачу и оставьте свои комментарий, если Вы скачали Московские тайны. Семь сестер через торрент бесплатно! Внесите свою лепту в развитие PiratBit!
    Комментировать посты могут только пользователи прошедшие не сложную регистрацию
    Показать сообщения:    

    Московские тайны. Семь сестер через торрент
    Скачать бесплатно Московские тайны. Семь сестер
    Московские тайны. Семь сестер скачать торрент
    Московские тайны. Семь сестер смотреть онлайн
    Cкачать фильм Московские тайны. Семь сестер бесплатно
    Московские тайны. Семь сестер скачать торрент в хорошем качестве
    Московские тайны. Семь сестер смотреть онлайн бесплатно в хорошем качестве


    Вы не можете начинать темы
    Вы не можете отвечать на сообщения
    Вы не можете редактировать свои сообщения
    Вы не можете удалять свои сообщения
    Вы не можете голосовать в опросах
    Вы не можете прикреплять файлы к сообщениям
    Вы можете скачивать файлы