Ссылка на приватное зеркало нашего сайта всего за 1$. Внимание количество ограничено!!!

2 сезон

iTunes

1 сезон

1

iTunes

iTunes

iTunes

1 сезон

RePack

30

ИГРА 18+

pack

ВАЖНО

!!Акция!!

Alien_RageХит недели

RePack

MK11
pack

Забери бонус

RePack

jed

!!Акция!!

Alien_Rage

RePack

fifa19

RePack

Assassins Creed: Odyssey

RePack

NEED FOR SPEED™ PAYBACK

4 сезон

9 сезон

Бесстыжие 9 сезон

Все сериалы

все сериалы на PB.wtf

RePack

FAR CRY 5
  

Динозавр / Сезон: 1 / Серии: 1-10 из 10 (Евгений Серов, Всеволод Аравин, Олег Компасов) [2018, Криминал, мелодрама, WEB-DLRip-AVC] pb.wtf

Динозавр через торрент pb.wtf

Раздают: 1 [ 0 KB/s ]
Размер: 6.87 GB | Добавлен: 2 года назад | Торрент скачан:330 раз
Скачать  

13-10-2018 01:18 Динозавр Скачать торрент  

ДинозаврГод выпуска: 2018
Страна: Россия
Жанр: Криминал, мелодрама
Продолжительность: ~ 00:47:00 серия
Перевод: Не требуется
Субтитры: отсутствуют

Режиссер: Евгений Серов, Всеволод Аравин, Олег Компасов



В ролях:

Андрей Смирнов, Александр Панкратов-Чёрный, Евгений Миллер, Анна Васильева, Максим Литовченко, Михаил Евланов, Ольга Тумайкина, Илья Любимов, Сергей Епишев, Александр Берда, Илья Ильин, Роман Полянский, Александра Мареева, Ольга Филиппова, Юрий Чурсин, Елена Сафонова, Геннадий Яковлев, Сергей Жигунов, Валерий Новиков, Александр Вдовин, Юрий Сысоев (I), Светлана Немоляева, Галина Петрова, Борис Смолкин, Борис Невзоров, Иван Лакшин, Борис Токарев, Сергей Сосновский, Михаил Горский

Описание:

Престарелый криминальный авторитет Семен Тимофеевич Бабушкин, о чьем воровском таланте в свое время слагали легенды, последние 35 лет Семен Тимофеевич не выходил из тюрьмы, предпочитая ее свободе, где у него не осталось ни друзей, ни родных. Но однажды Бабушкин получает письмо, из которого узнает, что у него, оказывается, все-таки есть на воле кровиночка, сын Слава. По иронии судьбы, младший Бабушкин служит следователем в органах, но в настоящее время нуждается в помощи - его серьезно подставили, и под угрозой оказалась не только его жизнь, но и безопасность его дочери. Тогда благородный бандит принимается налаживать свои старые связи и навыки, чтобы вытащить новоявленную семью из беды.

Качество: WEB-DLRip-AVC
Формат: MKV

Видео: MPEG-4 AVC, ~ 2000 Кбит/с, 1024x576, 25 кадр/с
Аудио: AC3, 2 ch, 192 Кбит/с
скриншот  скриншот  скриншот  скриншот  

Общее
Уникальный идентификатор : 198918840036293044602444237729447362979 (0x95A6600376F69B3F95CA79BE453141A3)
Полное имя : D:\Динозавр.(2018).WEB-DLRip.(AVC).Files-x\01.Динозавр.(2018).WEB-DLRip.(AVC).by.Серый1779.Files-x.mkv
Формат : Matroska
Версия формата : Version 2
Размер файла : 740 Мбайт
Продолжительность : 47 м. 9 с.
Общий поток : 2193 Кбит/сек
Дата кодирования : UTC 2018-10-08 21:22:18
Программа кодирования : mkvmerge v7.8.0 ('River Man') 32bit built on Apr 3 2015 12:11:22
Библиотека кодирования : libebml v1.3.1 + libmatroska v1.4.2

Видео
Идентификатор : 1
Формат : AVC
Формат/Информация : Advanced Video Codec
Профиль формата : High@L4.1
Параметр CABAC формата : Да
Параметр RefFrames формата : 9 кадров
Идентификатор кодека : V_MPEG4/ISO/AVC
Продолжительность : 47 м. 10 с.
Битрейт : 2000 Кбит/сек
Ширина : 1024 пикселя
Высота : 576 пикселей
Соотношение сторон : 16:9
Режим частоты кадров : Постоянный
Частота кадров : 25,000 кадров/сек
Цветовое пространство : YUV
Субдискретизация насыщенности : 4:2:0
Битовая глубина : 8 бит
Тип развёртки : Прогрессивная
Бит/(Пиксели*Кадры) : 0.136
Размер потока : 660 Мбайт (89%)
Библиотека кодирования : x264 core 146 r2538 121396c
Настройки программы : cabac=1 / ref=9 / deblock=1:-2:-1 / analyse=0x3:0x133 / me=umh / subme=9 / psy=1 / psy_rd=1.00:0.15 / mixed_ref=1 / me_range=32 / chroma_me=1 / trellis=2 / 8x8dct=1 / cqm=0 / deadzone=21,11 / fast_pskip=0 / chroma_qp_offset=-3 / threads=18 / lookahead_threads=3 / sliced_threads=0 / nr=0 / decimate=1 / interlaced=0 / bluray_compat=0 / constrained_intra=0 / bframes=9 / b_pyramid=2 / b_adapt=2 / b_bias=0 / direct=1 / weightb=1 / open_gop=0 / weightp=2 / keyint=250 / keyint_min=25 / scenecut=40 / intra_refresh=0 / rc=2pass / mbtree=0 / bitrate=2000 / ratetol=1.0 / qcomp=0.60 / qpmin=0 / qpmax=69 / qpstep=4 / cplxblur=20.0 / qblur=0.5 / ip_ratio=1.40 / pb_ratio=1.30 / aq=2:1.00
Default : Да
Forced : Нет
Цветовой диапазон : Limited
Основные цвета : BT.709
Характеристики трансфера : BT.709
Коэффициенты матрицы : BT.709

Аудио
Идентификатор : 2
Формат : AC-3
Формат/Информация : Audio Coding 3
Расширение режима : CM (complete main)
Параметр Endianness формата : Big
Идентификатор кодека : A_AC3
Продолжительность : 47 м. 9 с.
Вид битрейта : Постоянный
Битрейт : 192 Кбит/сек
Каналы : 2 канала
Расположение каналов : Front: L R
Частота : 48,0 КГц
Частота кадров : 31,250 кадров/сек (1536 spf)
Метод сжатия : С потерями
Размер потока : 64,8 Мбайт (9%)
Default : Да
Forced : Нет

pb.wtf



Скачать Динозавр через торрент https://img11.lostpic.net/2018/10/08/aa71884e69747df4e7c5f037527a3f9a.jpg Скачать фильм Динозавр через торрент бесплантно в хорошем качестве Описание: Престарелый криминальный авторитет Семен Тимофеевич Бабушкин, о чьем воровском таланте в свое время слагали легенды, последние 35 ... 10 10 12
Info! Золотая раздача, скачанное не засчитывается.
Торрент: Зарегистрирован [2018-10-13 01:18] · скачан: 330 раз
Статус: √ проверено
Размер: 6.87 GB
Как cкачать? Как скачать Динозавр через торрент | qTorrent

% Раздел Тема Автор DL S | L
Наши сериалы [ 5.89 GB ] Динозавр / Сезон: 2 / Серии: 1-10 из 10 [2020 WEBRip] bober100 Скачать
2 | 0
Наши сериалы [ 12.07 GB ] Динозавр / Сезон: 2 / Серии: 1-10 из 10 [2020 WEBRip 720p] bober100 Скачать
1 | 0
Наши сериалы [ 7.16 GB ] Динозавр / Сезон: 2 / Серии: 1-10 из 10 [2020 WEBRip-AVC] bober100 Скачать
1 | 0
Наши сериалы [ 20.07 GB ] Динозавр / Сезон: 2 / Серии: 1-10 из 10 [2020 WEBRip 1080p] bober100 Скачать
2 | 0
Наши сериалы [ 5.56 GB ] Динозавр / Сезон: 2 / Серии: 1-10 из 10 [2020 SATRip-AVC] aleksan55 Скачать
2 | 0
Наши сериалы [ 6.48 GB ] Динозавр / Сезон: 2 / Серии: 1-10 из 10 [2020 SATRip] bober100 Скачать
1 | 0
Наши сериалы [ 11.58 GB ] Динозавр / Сезон: 1 / Серии: 1-10 из 10 [2018 WEBRip 720p] bober100 Скачать
1 | 0

28-11-2019 20:33  

Отключить всю рекламу на сайте

    Дорогой пользователь! Огромная просьба, поблагодарите релизера, оцените раздачу и оставьте свои комментарий, если Вы скачали Динозавр через торрент бесплатно! Внесите свою лепту в развитие PiratBit!
    Комментировать посты могут только пользователи прошедшие не сложную регистрацию
    Показать сообщения:    

    Динозавр через торрент
    Скачать бесплатно Динозавр
    Динозавр скачать торрент
    Динозавр смотреть онлайн
    Cкачать фильм Динозавр бесплатно
    Динозавр скачать торрент в хорошем качестве
    Динозавр смотреть онлайн бесплатно в хорошем качестве


    Вы не можете начинать темы
    Вы не можете отвечать на сообщения
    Вы не можете редактировать свои сообщения
    Вы не можете удалять свои сообщения
    Вы не можете голосовать в опросах
    Вы не можете прикреплять файлы к сообщениям
    Вы можете скачивать файлы