новый адрес
Ссылка на приватное зеркало всего за 1$. Внимание количество ограничено!!!

iTunes

1+1

iTunes

мы

WEB-DL

1

iTunes

Чернобыль

iTunes

Ральф против интернета

Лицензия

ПШазам

Лицензия

Оно 2

Лицензия

30
pack

Вам бонус

ВАЖНО

!!Акция!!

Alien_RageХит недели

RePack

Resident Evil 21

ИГРА 18+

pack

RePack

jed

!!Акция!!

Alien_Rage

RePack

fifa19

RePack

Assassins Creed: Odyssey

RePack

NEED FOR SPEED™ PAYBACK

3 сезон

9 сезон

Бесстыжие 9 сезон

Все сериалы

все сериалы на PB.wtf

RePack

FAR CRY 5
Ребята, катастрофически не хватает 1900р. для оплаты серверов за Октябрь (всвязи с блокировками трафик упал в 3 раза), 1-2р., выручайте.
  

От семьи не убежишь / La ch'tite famille (Дэни Бун) [2018, комедия, BDRip-AVC] Дубляж - [Лицензия / iTunes] - ExKinoRay pb.wtf

От семьи не убежишь через торрент pb.wtf

Раздают: 1 [ 0 KB/s ]
Размер: 2.29 GB | Добавлен: 1 год 1 мес. назад | Торрент скачан:555 раз
Скачать  

13-10-2018 02:11 От семьи не убежишь Скачать торрент  

Информация о фильме
Название: От семьи не убежишь
Оригинальное название: La ch'tite famille
Год выпуска: 2018
Жанр: Комедия
Режиссер: Дани Бун
В ролях: Дани Бун, Лин Рено, Лоранс Арне, Валери Боннетон, Ги Леклюиз, Франсуа Берлеан, Пьер Ришар, Жюлиан Лепоро, Стефан Пезера, Ян Туаль

Описание:
Молодые и успешные парижские дизайнеры Валентин и Констанция готовятся заключить многомиллионный контракт, но в самый неподходящий момент на выставку приезжает вся семейка Валентина, которая проливает свет на его прошлое и расстраивает все планы.

rating

Страна: Франция
Студия: Les Productions du Ch'timi, Pathй
Продолжительность: 01:46:28
Перевод: Дублированный | iTunes

Формат: MKV
Качество: BDRip-AVC
Видео: MPEG-4 AVC, 1024x428 (2.40:1), 23,976 fps, ~ 2242 kbps
Аудио #01: 48 kHz, AC3, 5.1, 384 Kbps | iTunes | RUS |
Аудио #02: 48 kHz, AC3, 5.1, 448 Kbps | Оригинал | FRA |
Субтитры: Английские (Full)
Навигация по главам: Есть
General
Unique ID : 194091005510077867189366819804494395331 (0x92049164D4BB47A398EB457F992B77C3)
Complete name : D:\La.Chtite.Famille.2018.iTunes.BDRip.AVC.ExKinoRay.mkv
Format : Matroska
Format version : Version 2
File size : 2.29 GiB
Duration : 1 h 46 min
Overall bit rate : 3 076 kb/s
Movie name : La Chtite Famille 2018 from ExKinoRay
Encoded date : UTC 2018-10-13 00:21:43
Writing application : mkvmerge v5.6.0 ('Kenya Kane') built on May 27 2012 16:44:04
Writing library : libebml v1.2.3 + libmatroska v1.3.0

Video
ID : 1
Format : AVC
Format/Info : Advanced Video Codec
Format profile : High@L4.1
Format settings, CABAC : Yes
Format settings, ReFrames : 12 frames
Codec ID : V_MPEG4/ISO/AVC
Duration : 1 h 46 min
Bit rate : 2 242 kb/s
Width : 1 024 pixels
Height : 428 pixels
Display aspect ratio : 2.40:1
Frame rate mode : Constant
Frame rate : 23.976 (23976/1000) FPS
Color space : YUV
Chroma subsampling : 4:2:0
Bit depth : 8 bits
Scan type : Progressive
Bits/(Pixel*Frame) : 0.213
Stream size : 1.62 GiB (71%)
Title : Enigma
Writing library : x264 core 152 r2851 ba24899
Encoding settings : cabac=1 / ref=12 / deblock=1:-2:-2 / analyse=0x3:0x113 / me=umh / subme=10 / psy=1 / psy_rd=1.05:0.10 / mixed_ref=1 / me_range=32 / chroma_me=1 / trellis=2 / 8x8dct=1 / cqm=0 / deadzone=21,11 / fast_pskip=0 / chroma_qp_offset=-3 / threads=12 / lookahead_threads=2 / sliced_threads=0 / nr=0 / decimate=0 / interlaced=0 / bluray_compat=0 / constrained_intra=0 / bframes=9 / b_pyramid=2 / b_adapt=2 / b_bias=0 / direct=3 / weightb=1 / open_gop=0 / weightp=2 / keyint=240 / keyint_min=23 / scenecut=40 / intra_refresh=0 / rc=2pass / mbtree=0 / bitrate=2242 / ratetol=1.0 / qcomp=0.60 / qpmin=0 / qpmax=51 / qpstep=4 / cplxblur=20.0 / qblur=0.5 / ip_ratio=1.40 / pb_ratio=1.30 / aq=1:1.00
Language : English
Default : Yes
Forced : No
Color range : Limited
Color primaries : BT.709
Transfer characteristics : BT.709
Matrix coefficients : BT.709

Audio #1
ID : 2
Format : AC-3
Format/Info : Audio Coding 3
Mode extension : CM (complete main)
Format settings, Endianness : Big
Codec ID : A_AC3
Duration : 1 h 46 min
Bit rate mode : Constant
Bit rate : 384 kb/s
Channel(s) : 6 channels
Channel positions : Front: L C R, Side: L R, LFE
Sampling rate : 48.0 kHz
Frame rate : 31.250 FPS (1536 spf)
Compression mode : Lossy
Stream size : 292 MiB (12%)
Title : iTunes
Language : Russian
Default : Yes
Forced : No

Audio #2
ID : 3
Format : AC-3
Format/Info : Audio Coding 3
Mode extension : CM (complete main)
Format settings, Endianness : Big
Codec ID : A_AC3
Duration : 1 h 46 min
Bit rate mode : Constant
Bit rate : 448 kb/s
Channel(s) : 6 channels
Channel positions : Front: L C R, Side: L R, LFE
Sampling rate : 48.0 kHz
Frame rate : 31.250 FPS (1536 spf)
Compression mode : Lossy
Stream size : 341 MiB (15%)
Language : French
Default : No
Forced : No

Text
ID : 4
Format : UTF-8
Codec ID : S_TEXT/UTF8
Codec ID/Info : UTF-8 Plain Text
Language : English
Default : No
Forced : No

Menu
00:00:00.000 : en:Chapter 1
00:07:37.248 : en:Chapter 2
00:15:11.285 : en:Chapter 3
00:25:04.461 : en:Chapter 4
00:33:17.870 : en:Chapter 5
00:41:44.627 : en:Chapter 6
00:51:26.249 : en:Chapter 7
01:00:48.811 : en:Chapter 8
01:10:42.905 : en:Chapter 9
01:20:07.928 : en:Chapter 10
01:30:17.620 : en:Chapter 11
01:41:55.150 : en:Chapter 12
Релиз от:

Автор релиза: pb.wtf



Скачать От семьи не убежишь через торрент https://b.radikal.ru/b11/1807/d7/fbbb6539651e.png Скачать фильм От семьи не убежишь через торрент бесплантно в хорошем качестве Описание: Молодые и успешные парижские дизайнеры Валентин и Констанция готовятся заключить многомиллионный контракт, но в самый ... 9.6 10 8
Info! Золотая раздача, скачанное не засчитывается.
Торрент: Зарегистрирован [2018-10-13 02:11] · скачан: 555 раз
Статус: √ проверено
Размер: 2.29 GB
Как cкачать? Как скачать От семьи не убежишь через торрент | qTorrent

28-11-2019 20:33  

Отключить всю рекламу на сайте

18-10-2018 16:51 От семьи не убежишь Скачать торрент  

глянуть можно... даже наверное нужно)pb.wtf



22-11-2018 18:47 От семьи не убежишь Скачать торрент  

VTPRV писал(а):

глянуть можно... даже наверное нужно)

зачет! комент.)pb.wtf



    Дорогой пользователь! Огромная просьба, поблагодарите релизера, оцените раздачу и оставьте свои комментарий, если Вы скачали От семьи не убежишь через торрент бесплатно! Внесите свою лепту в развитие PiratBit!
    Комментировать посты могут только пользователи прошедшие не сложную регистрацию
    Показать сообщения:    

    От семьи не убежишь через торрент
    Скачать бесплатно От семьи не убежишь
    От семьи не убежишь скачать торрент
    От семьи не убежишь смотреть онлайн
    Cкачать фильм От семьи не убежишь бесплатно
    От семьи не убежишь скачать торрент в хорошем качестве
    От семьи не убежишь смотреть онлайн бесплатно в хорошем качестве


    Вы не можете начинать темы
    Вы не можете отвечать на сообщения
    Вы не можете редактировать свои сообщения
    Вы не можете удалять свои сообщения
    Вы не можете голосовать в опросах
    Вы не можете прикреплять файлы к сообщениям
    Вы можете скачивать файлы