Ссылка на приватное зеркало нашего сайта всего за 1$. Внимание количество ограничено!!!

2 сезон

iTunes

1 сезон

1

iTunes

iTunes

iTunes

1 сезон

RePack

30

ИГРА 18+

pack

ВАЖНО

!!Акция!!

Alien_RageХит недели

RePack

MK11
pack

Забери бонус

RePack

jed

!!Акция!!

Alien_Rage

RePack

fifa19

RePack

Assassins Creed: Odyssey

RePack

NEED FOR SPEED™ PAYBACK

4 сезон

9 сезон

Бесстыжие 9 сезон

Все сериалы

все сериалы на PB.wtf

RePack

FAR CRY 5
  

Небоскрёб / Skyscraper (Роусон Маршалл Тёрбер) [2018 г., Боевик, триллер, BDRip 1080p, HEVC (10bit), Дубляж (iTunes)] pb.wtf

Небоскрёб через торрент pb.wtf

Раздают: 1 [ 0 KB/s ]
Размер: 2.23 GB | Добавлен: 2 года назад | Торрент скачан:198 раз
Скачать  

13-10-2018 06:16 Небоскрёб Скачать торрент  

Небоскрёб / Skyscraper
Год выпуска: 2018
Страна: США
Жанр: Боевик, триллер
Продолжительность: 01:42:24
Перевод: Дубляж
Субтитры: Русские (форсированные, полные), английские

Режиссер: Роусон Маршалл Тёрбер

rating

В ролях: Дуэйн Джонсон, Нив Кэмпбелл, Пабло Шрайбер, Ноа Тейлор, Кевин Ранкин, Роланд Мёллер, Байрон Манн, Мэтт О`Лири, Адриан Холмс

Описание: Самый высокий и технологичный небоскрёб в мире становится центром огненной катастрофы. Только бывший агент ФБР, а теперь эксперт по безопасности Уилл Сойер может спасти вертикальный город под небесами. Когда нельзя доверять никому, а жизнь семьи в опасности, каждая секунда на счету.

Жду вас на моём сайте, ссылка у меня в Профиле!
Доп. информация: -
H.265/HEVC (High Efficiency Video Coding) - это новый стандарт кодирования видео.
- Стандарт H.265/HEVC является логическим продолжением стандарта
H.264/AVC (Advanced Video Coding), и характеризуется более эффективными
алгоритмами сжатия, а также поддержкой высокого разрешения вплоть до 8K UHD
(8192x4320). Первая версия стандарта H.265 была опубликована в начале 2013 года.
- Рипы в фомате HEVC поддерживается не всеми аппаратными проигрывателями.
- Для корректного воспроизведения может потребоваться обновление ПО.
- Владельцам несовместимого железа просьба не беспокоить,
есть альтернативные релизы.
Качество: BDRip 1080p
Формат: MKV
Видео кодек: H.265
Аудио кодек: AC3
Видео: 1920x800, ~2289 Kbps
Аудио#1: AC3, 6 ch, 384 Kbps (Дублированный)
Аудио#2: AC3, 6 ch, 448 Kbps (Оригинал)

Общее
Уникальный идентификатор : 249506544745357763776395684620119350344 (0xBBB5366BF13671898F1EB11F644C9C48)
Полное имя : F:\РАЗДАЧИ\Небоскреб. 2018. 1080p. HEVC.mkv
Формат : Matroska
Версия формата : Version 4 / Version 2
Размер файла : 2,23 Гбайт
Продолжительность : 1 ч. 42 м.
Общий поток : 3123 Кбит/сек
Дата кодирования : UTC 2018-10-11 12:47:53
Программа кодирования : mkvmerge v21.0.0 ('Tardigrades Will Inherit The Earth') 64-bit
Библиотека кодирования : libebml v1.3.5 + libmatroska v1.4.8
Обложка : Yes
Attachments : cover.jpg

Видео
Идентификатор : 1
Формат : HEVC
Формат/Информация : High Efficiency Video Coding
Профиль формата : Main 10@L4@Main
Идентификатор кодека : V_MPEGH/ISO/HEVC
Продолжительность : 1 ч. 42 м.
Битрейт : 2289 Кбит/сек
Ширина : 1920 пикселей
Высота : 800 пикселей
Соотношение сторон : 2,40:1
Режим частоты кадров : Постоянный
Частота кадров : 23,976 (24000/1001) кадра/сек
Цветовое пространство : YUV
Субдискретизация насыщенности : 4:2:0
Битовая глубина : 10 бит
Бит/(Пиксели*Кадры) : 0.062
Размер потока : 1,64 Гбайт (73%)
Default : Да
Forced : Нет

Аудио #1
Идентификатор : 2
Формат : AC-3
Формат/Информация : Audio Coding 3
Идентификатор кодека : A_AC3
Продолжительность : 1 ч. 42 м.
Вид битрейта : Постоянный
Битрейт : 384 Кбит/сек
Каналы : 6 каналов
Расположение каналов : Front: L C R, Side: L R, LFE
Частота : 48,0 КГц
Частота кадров : 31,250 кадров/сек (1536 SPF)
Битовая глубина : 16 бит
Метод сжатия : С потерями
Размер потока : 281 Мбайт (12%)
Заголовок : Dub | DD 5.1 @ 384 kbps - iTunes
Язык : Russian
ServiceKind/String : Complete Main
Default : Да
Forced : Нет

Аудио #2
Идентификатор : 3
Формат : AC-3
Формат/Информация : Audio Coding 3
Идентификатор кодека : A_AC3
Продолжительность : 1 ч. 42 м.
Вид битрейта : Постоянный
Битрейт : 448 Кбит/сек
Каналы : 6 каналов
Расположение каналов : Front: L C R, Side: L R, LFE
Частота : 48,0 КГц
Частота кадров : 31,250 кадров/сек (1536 SPF)
Битовая глубина : 16 бит
Метод сжатия : С потерями
Размер потока : 328 Мбайт (14%)
Заголовок : Original| DD 5.1 @ 448 kbps
Язык : English
ServiceKind/String : Complete Main
Default : Нет
Forced : Нет

Текст #1
Идентификатор : 4
Формат : UTF-8
Идентификатор кодека : S_TEXT/UTF8
Идентификатор кодека/Информация : UTF-8 Plain Text
Продолжительность : 1 ч. 26 м.
Битрейт : 2 бит/сек
ElementCount : 32
Размер потока : 1,38 Кбайт (0%)
Заголовок : Forced
Язык : Russian
Default : Да
Forced : Да

Текст #2
Идентификатор : 5
Формат : UTF-8
Идентификатор кодека : S_TEXT/UTF8
Идентификатор кодека/Информация : UTF-8 Plain Text
Продолжительность : 1 ч. 33 м.
Битрейт : 73 бит/сек
ElementCount : 949
Размер потока : 50,6 Кбайт (0%)
Заголовок : iTunes
Язык : Russian
Default : Нет
Forced : Нет

Текст #3
Идентификатор : 6
Формат : UTF-8
Идентификатор кодека : S_TEXT/UTF8
Идентификатор кодека/Информация : UTF-8 Plain Text
Продолжительность : 1 ч. 31 м.
Битрейт : 43 бит/сек
ElementCount : 988
Размер потока : 29,2 Кбайт (0%)
Заголовок : Full
Язык : English
Default : Нет
Forced : Нет

pb.wtf



Скачать Небоскрёб через торрент https://d.radikal.ru/d41/1810/94/448d72496f40.jpg Скачать фильм Небоскрёб через торрент бесплантно в хорошем качестве Описание: Самый высокий и технологичный небоскрёб в мире становится центром огненной катастрофы. Только бывший агент ФБР, а теперь эксперт ... 10 10 4
Info! Золотая раздача, скачанное не засчитывается.
Торрент: Зарегистрирован [2018-10-13 06:16] · скачан: 198 раз
Статус: √ проверено
Размер: 2.23 GB
Как cкачать? Как скачать Небоскрёб через торрент | qTorrent

% Раздел Тема Автор DL S | L
Ultra HD (UHD: 2K, 4K, 8K) — видео сверхвысокой чёткости [ 57.99 GB ] Небоскрёб / Skyscraper [2018 UHD BDRemux 2160p] [Dolby Vision TV] DUB [] bober100 Скачать
1 | 0
Фильмы [HD 720p, 1080p] (Хороший звук DUB, MVO) [ 10.72 GB ] Небоскреб / Skyscraper [2018 BDRip 1080p] DUB sheker187 Скачать
3 | 0
Фильмы с авторской озвучкой [ 1.46 GB ] Небоскреб / Skyscraper [2018 BDRip] [AVO] killermax2013 Скачать
1 | 0
Фильмы 2018 [DVDrip, WEB-DLRip, HDrip] (DUB, MVO) [ 1.45 GB ] Небоскрёб / Skyscraper [2018 BDRip-AVC] DUB [ ] bober100 Скачать
2 | 0
Ultra HD (UHD: 2K, 4K, 8K) — видео сверхвысокой чёткости [ 83.22 GB ] Небоскреб / Skyscraper [2018 UHD Blu-ray 2160p] DUB [] [HDR + Dolby Vision] sheker187 Скачать
1 | 0
Ultra HD (UHD: 2K, 4K, 8K) — видео сверхвысокой чёткости [ 52.45 GB ] Небоскреб / Skyscraper [2018 UHD BDRemux 2160p] DUB [] sheker187 Скачать
1 | 0
3D Фильмы [ 19.53 GB ] Небоскреб в 3Д / Skyscraper 3D [2018 BDRip 1080p] OverUnder / Вертикальная стереопара serega768 Скачать
1 | 0

28-11-2019 20:33  

Отключить всю рекламу на сайте

19-09-2020 14:23 Небоскрёб Скачать торрент  

Скорости быpb.wtf



    Дорогой пользователь! Огромная просьба, поблагодарите релизера, оцените раздачу и оставьте свои комментарий, если Вы скачали Небоскрёб через торрент бесплатно! Внесите свою лепту в развитие PiratBit!
    Комментировать посты могут только пользователи прошедшие не сложную регистрацию
    Показать сообщения:    

    Небоскрёб через торрент
    Скачать бесплатно Небоскрёб
    Небоскрёб скачать торрент
    Небоскрёб смотреть онлайн
    Cкачать фильм Небоскрёб бесплатно
    Небоскрёб скачать торрент в хорошем качестве
    Небоскрёб смотреть онлайн бесплатно в хорошем качестве


    Вы не можете начинать темы
    Вы не можете отвечать на сообщения
    Вы не можете редактировать свои сообщения
    Вы не можете удалять свои сообщения
    Вы не можете голосовать в опросах
    Вы не можете прикреплять файлы к сообщениям
    Вы можете скачивать файлы